<?xml version="1.0" standalone="no"?>
<!DOCTYPE svg PUBLIC "-//W3C//DTD SVG 1.1//EN" "http://www.w3.org/Graphics/SVG/1.1/DTD/svg11.dtd" >
<svg xmlns="http://www.w3.org/2000/svg">
<metadata></metadata>
<defs>
<font id="neuzeit_s_lt_stdbook" horiz-adv-x="1138" >
<font-face units-per-em="2048" ascent="1540" descent="-508" />
<missing-glyph horiz-adv-x="569" />
<glyph unicode="&#xfb01;" d="M63 893v131h191v293q0 78 36.5 130t89.5 72.5t120 20.5q90 0 121 -6v-156q-27 6 -97 6q-110 0 -110 -102v-258h207v-131h-207v-893h-160v893h-191zM791 1419q0 51 34.5 86t85.5 35t86 -35t35 -86t-35 -86t-86 -35t-85.5 35t-34.5 86zM831 0v1024h160v-1024h-160z" />
<glyph unicode="&#xfb02;" d="M63 893v131h191v293q0 78 36.5 130t89.5 72.5t120 20.5q90 0 121 -6v-156q-27 6 -97 6q-110 0 -110 -102v-258h207v-131h-207v-893h-160v893h-191zM831 0v1540h160v-1540h-160z" />
<glyph horiz-adv-x="2048" />
<glyph horiz-adv-x="2048" />
<glyph unicode="&#xd;" horiz-adv-x="2048" />
<glyph unicode=" "  horiz-adv-x="569" />
<glyph unicode="&#x09;" horiz-adv-x="569" />
<glyph unicode="&#xa0;" horiz-adv-x="569" />
<glyph unicode="!" horiz-adv-x="684" d="M227 90q0 47 34 81t81 34t81 -34t34 -81t-34 -81t-81 -34t-81 34t-34 81zM262 350v1190h160v-1190h-160z" />
<glyph unicode="&#x22;" horiz-adv-x="681" d="M74 1024v516h159v-516h-159zM449 1024v516h159v-516h-159z" />
<glyph unicode="#" d="M45 469v119h238l47 340h-221v119h237l66 469h131l-66 -469h264l66 469h131l-66 -469h222v-119h-238l-47 -340h221v-119h-237l-66 -469h-131l66 469h-265l-65 -469h-131l65 469h-221zM414 588h264l47 340h-264z" />
<glyph unicode="$" d="M82 422h172q3 -54 17.5 -101t43.5 -90.5t80.5 -73t120.5 -38.5v586q-46 13 -73.5 21.5t-75.5 28t-78.5 38.5t-67.5 51.5t-58.5 69.5t-36.5 89.5t-15 114.5q0 108 45 198.5t138.5 152t221.5 71.5v154h107v-154q54 -3 104.5 -15.5t105 -43t95.5 -76t70 -120.5t36 -171h-172 q-2 33 -5 57t-17.5 66t-38 71t-69.5 55t-109 34v-541q107 -27 184 -62.5t135 -85.5t86.5 -118.5t28.5 -157.5q0 -183 -109.5 -308t-324.5 -149v-237h-107v237q-108 6 -190 42.5t-133 97.5t-78 137.5t-33 169.5zM283 1141q0 -49 14 -87.5t34 -63.5t54 -46t62 -32.5t69 -24.5 v510q-103 -6 -168 -80t-65 -176zM623 119q128 11 195 82.5t67 197.5q0 214 -262 277v-557z" />
<glyph unicode="%" horiz-adv-x="2048" d="M233 1161q0 95 29.5 170t78 119t105.5 67t117 23q61 0 118 -23t105 -67t77.5 -119t29.5 -170t-29.5 -170t-77.5 -119t-105 -67t-118 -23q-60 0 -117 23t-105.5 67t-78 119t-29.5 170zM393 1161q0 -117 41.5 -188.5t128.5 -71.5t128.5 71.5t41.5 188.5t-41.5 188.5 t-128.5 71.5t-128.5 -71.5t-41.5 -188.5zM485 -70l949 1655h129l-949 -1655h-129zM1155 354q0 95 29.5 170t78 119t105.5 67t117 23q61 0 118 -23t105 -67t77.5 -119t29.5 -170t-29.5 -170t-77.5 -119t-105 -67t-118 -23q-60 0 -117 23t-105.5 67t-78 119t-29.5 170z M1315 354q0 -117 41.5 -188.5t128.5 -71.5t128.5 71.5t41.5 188.5t-41.5 188.5t-128.5 71.5t-128.5 -71.5t-41.5 -188.5z" />
<glyph unicode="&#x26;" horiz-adv-x="1478" d="M174 403q0 44 8 85.5t19.5 74t32.5 64.5t38.5 54.5t46.5 47.5t47.5 39t50.5 33.5t47 27t45 23t36 18.5q-50 72 -74 111.5t-46 100.5t-22 120q0 49 18.5 98.5t54.5 94t98.5 72.5t142.5 28q145 0 223 -81.5t78 -203.5q0 -100 -40 -172t-126 -137l-94 -72l297 -413 q67 127 84 260h159q-15 -95 -54.5 -201.5t-92.5 -175.5l215 -299h-203l-116 166q-69 -81 -179 -138t-252 -57q-201 0 -321.5 121.5t-120.5 310.5zM346 406q0 -52 18 -102.5t52.5 -93.5t92 -69t128.5 -26q103 0 187.5 42t140.5 111l-344 488q-139 -74 -207 -154.5t-68 -195.5 zM563 1190q0 -56 27.5 -107t91.5 -139q176 116 176 252q0 76 -39 122t-104 46t-108.5 -43t-43.5 -131z" />
<glyph unicode="'" horiz-adv-x="569" d="M205 1024v516h160v-516h-160z" />
<glyph unicode="(" horiz-adv-x="684" d="M143 604q0 150 29.5 293t69 244t100 203t101.5 156t94 116l122 -105q-47 -51 -91.5 -111t-94 -148.5t-86 -183.5t-60.5 -217t-24 -247t24 -247t60.5 -217t86 -183.5t94 -148.5t91.5 -111l-122 -105q-53 62 -94 116t-101.5 156t-100 203t-69 244t-29.5 293z" />
<glyph unicode=")" horiz-adv-x="684" d="M25 -303q47 51 91.5 111t94 148.5t86 183.5t60.5 217t24 247t-24 247t-60.5 217t-86 183.5t-94 148.5t-91.5 111l122 105q53 -62 94 -116t101.5 -156t100 -203t69 -244t29.5 -293t-29.5 -293t-69 -244t-100 -203t-101.5 -156t-94 -116z" />
<glyph unicode="*" d="M201 1239l32 102l283 -102v301h107v-301l278 102l37 -102l-291 -96l189 -244l-91 -65l-176 251l-176 -251l-90 65l189 244z" />
<glyph unicode="+" horiz-adv-x="1228" d="M96 459v119h459v458h119v-458h459v-119h-459v-459h-119v459h-459z" />
<glyph unicode="," horiz-adv-x="569" d="M29 -287l202 529l162 -78l-258 -496z" />
<glyph unicode="-" horiz-adv-x="684" d="M90 459v155h504v-155h-504z" />
<glyph unicode="." horiz-adv-x="569" d="M170 90q0 47 34 81t81 34t80.5 -34t33.5 -81t-33.5 -81t-80.5 -34t-81 34t-34 81z" />
<glyph unicode="/" horiz-adv-x="796" d="M33 -29l600 1598h131l-600 -1598h-131z" />
<glyph unicode="0" d="M76 758q0 85 6 162t21.5 157.5t40 147t63.5 126t89 100.5t119.5 65t153.5 24q116 0 205 -46t142.5 -120t87.5 -179t46.5 -210t12.5 -227q0 -85 -6 -162.5t-22 -157.5t-40 -147t-63 -126.5t-89.5 -100.5t-120 -65t-153.5 -24t-153.5 24t-119.5 65t-89 100.5t-63.5 126.5 t-40 147t-21.5 157.5t-6 162.5zM248 758q0 -168 23.5 -293t67 -199.5t101 -110.5t129.5 -36t129.5 36t101.5 110.5t67.5 199.5t23.5 293t-23.5 293t-67.5 199.5t-101.5 110.5t-129.5 36t-129.5 -36t-101 -110.5t-67 -199.5t-23.5 -293z" />
<glyph unicode="1" d="M266 1108v158q96 37 215 123.5t176 150.5h82v-1540h-172v1278q-128 -99 -301 -170z" />
<glyph unicode="2" d="M98 0v145l496 547q119 130 186.5 233.5t67.5 196.5q0 114 -76 188t-207 74q-141 0 -212 -90t-79 -239h-159q2 105 28.5 189t70 138.5t102 90.5t121 51.5t130.5 15.5q214 0 333.5 -116.5t119.5 -295.5q0 -122 -59.5 -232.5t-192.5 -254.5l-451 -485h705v-156h-924z" />
<glyph unicode="3" d="M80 379l160 12q16 -136 82 -204t215 -68q148 0 235.5 96t87.5 244q0 152 -93 242t-235 90q-115 0 -202 -68l-13 8v146l467 483h-639v156h832v-156l-430 -440l4 -5q40 7 70 7q81 0 153.5 -28t130.5 -81t92.5 -139t34.5 -193q0 -101 -32 -191t-92 -161t-155.5 -112.5 t-213.5 -41.5q-65 0 -121 10.5t-97.5 26.5t-76 42t-57.5 50t-41.5 58t-29 58.5t-18.5 60t-11 53t-7 45.5z" />
<glyph unicode="4" d="M72 416v137l665 987h154v-981h176v-143h-176v-416h-160v416h-659zM242 559h489v739h-4z" />
<glyph unicode="5" d="M98 381l172 14q6 -122 81.5 -199t199.5 -77q135 0 226 94.5t91 273.5q0 155 -87 252t-224 97q-196 0 -274 -156h-162l37 836h813v-156h-672l-25 -500h5q92 131 307 131q66 0 128 -16t122 -53.5t104.5 -93.5t72 -143.5t27.5 -195.5q0 -69 -16.5 -138.5t-54.5 -137.5 t-92 -120.5t-135.5 -85t-178.5 -32.5q-98 0 -177 22.5t-141.5 69.5t-100.5 126.5t-46 187.5z" />
<glyph unicode="6" d="M80 725q0 392 137 603.5t383 211.5q77 0 140.5 -18t105.5 -44.5t75 -64.5t51 -72t30.5 -73t16 -60t5.5 -41l-168 -12q-25 115 -84 178.5t-166 63.5q-80 0 -141.5 -37t-99 -96t-63 -146.5t-36 -175t-14.5 -194.5l4 -5q43 87 129 149t217 62q212 0 334.5 -133.5 t122.5 -349.5q0 -97 -33.5 -186.5t-93.5 -158.5t-152 -110t-202 -41q-117 0 -205.5 39.5t-143.5 105.5t-89 164t-47 204t-13 237zM272 467q0 -156 79.5 -252t221.5 -96q150 0 232 100t82 246q0 154 -82 244t-234 90q-127 0 -213 -92.5t-86 -239.5z" />
<glyph unicode="7" d="M102 1360v156h922v-170q-207 -319 -356.5 -677t-192.5 -669h-188q16 143 97 385t212.5 516.5t267.5 458.5h-762z" />
<glyph unicode="8" d="M88 418q0 164 76.5 267t218.5 144v5q-111 31 -169 114t-58 199q0 165 116.5 279t296.5 114t297 -114t117 -279q0 -116 -58 -199t-169 -114v-5q142 -41 218.5 -144t76.5 -267q0 -90 -33 -170.5t-93.5 -141t-152.5 -96t-203 -35.5t-202.5 35.5t-152 96t-93.5 141t-33 170.5 zM260 438q0 -150 83.5 -234.5t225.5 -84.5q143 0 226.5 84.5t83.5 234.5q0 133 -84.5 221.5t-225.5 88.5t-225 -88.5t-84 -221.5zM328 1145q0 -110 65 -182t176 -72t176.5 72t65.5 182q0 111 -67.5 181.5t-174.5 70.5q-106 0 -173.5 -71t-67.5 -181z" />
<glyph unicode="9" d="M80 1044q0 97 33.5 186.5t93.5 158.5t152 110t202 41q84 0 153.5 -20t120.5 -56t90 -89.5t64 -115.5t41 -139.5t22.5 -157t6.5 -171.5q0 -392 -137 -604t-383 -212q-77 0 -140.5 18t-105.5 44.5t-75 64.5t-51 72t-30.5 73t-16 60t-5.5 41l168 12q25 -115 83.5 -178 t165.5 -63q80 0 141.5 37t99.5 96t63 146.5t36 175t15 194.5l-4 4q-43 -87 -129 -149t-217 -62q-212 0 -334.5 133.5t-122.5 349.5zM252 1051q0 -154 81.5 -244t233.5 -90q127 0 213 92.5t86 239.5q0 156 -79.5 252t-221.5 96q-150 0 -231.5 -100t-81.5 -246z" />
<glyph unicode=":" horiz-adv-x="569" d="M170 90q0 47 34 81t81 34t80.5 -34t33.5 -81t-33.5 -81t-80.5 -34t-81 34t-34 81zM170 877q0 47 34 80.5t81 33.5t80.5 -33.5t33.5 -80.5t-33.5 -81t-80.5 -34t-81 34t-34 81z" />
<glyph unicode=";" horiz-adv-x="569" d="M29 -287l202 529l162 -78l-258 -496zM170 877q0 47 34 80.5t81 33.5t80.5 -33.5t33.5 -80.5t-33.5 -81t-80.5 -34t-81 34t-34 81z" />
<glyph unicode="&#x3c;" horiz-adv-x="1228" d="M96 459v119l1037 475v-127l-891 -408l891 -407v-127z" />
<glyph unicode="=" horiz-adv-x="1228" d="M96 256v119h1037v-119h-1037zM96 662v118h1037v-118h-1037z" />
<glyph unicode="&#x3e;" horiz-adv-x="1228" d="M96 -16v127l891 407l-891 408v127l1037 -475v-119z" />
<glyph unicode="?" d="M164 1139q0 57 9 110.5t36.5 113.5t71 104t119 73t173.5 29q84 0 155.5 -24t127 -70t87.5 -121t32 -170q0 -71 -16 -126.5t-53.5 -105t-75.5 -85t-107 -89.5q-148 -117 -148 -295v-133h-159v105q0 139 37 232t149 179q75 57 115.5 100t63 98.5t22.5 127.5 q0 102 -62.5 167.5t-171.5 65.5q-123 0 -184 -76.5t-61 -209.5h-160zM381 90q0 47 34 81t81 34t80.5 -34t33.5 -81t-33.5 -81t-80.5 -34t-81 34t-34 81z" />
<glyph unicode="@" horiz-adv-x="1638" d="M20 770q0 163 64 311.5t171 255t254 169.5t306 63q175 0 325.5 -54.5t254.5 -148t163.5 -221.5t59.5 -273q0 -120 -46.5 -230t-121 -185.5t-169 -120.5t-189.5 -45q-76 0 -123.5 37t-53.5 108h-4q-129 -145 -272 -145q-141 0 -220 93.5t-79 233.5q0 112 38 222.5 t103.5 198.5t163.5 143t209 55q167 0 236 -178h4l41 139h133l-199 -616q-35 -107 -35 -136q0 -16 14.5 -24t33 -10t51.5 -2q62 0 125 29t117.5 84t89 148t34.5 208q0 181 -89 314.5t-241.5 201t-349.5 67.5q-146 0 -274 -56t-216.5 -150.5t-139 -223.5t-50.5 -272 q0 -194 89 -350t246 -244t351 -88q183 0 337.5 74.5t248.5 205.5h131q-98 -181 -293.5 -284t-437.5 -103q-124 0 -240 33t-216 100t-174.5 161t-117.5 224t-43 281zM471 633q0 -108 54 -165.5t147 -57.5q95 0 178 78.5t128.5 192t45.5 224.5q0 108 -50.5 160.5t-125.5 52.5 q-83 0 -156.5 -48t-120 -121.5t-73.5 -157t-27 -158.5z" />
<glyph unicode="A" horiz-adv-x="1368" d="M16 0l580 1540h176l580 -1540h-195l-153 434h-639l-154 -434h-195zM422 590h524l-260 733h-4z" />
<glyph unicode="B" horiz-adv-x="1251" d="M174 0v1540h496q193 0 305 -105t112 -255q0 -70 -10.5 -126t-36.5 -109.5t-77 -90t-125 -51.5v-4q134 -10 220.5 -104.5t86.5 -270.5q0 -115 -57.5 -211.5t-163.5 -154.5t-240 -58h-510zM346 156h322q144 0 224.5 80t80.5 200q0 38 -11 75.5t-37 74.5t-64 64.5t-98 45 t-134 17.5h-283v-557zM346 856h256q142 0 221.5 73.5t79.5 207.5q0 144 -76 202t-219 58h-262v-541z" />
<glyph unicode="C" horiz-adv-x="1705" d="M129 770q0 171 60 320.5t164 254t249 164.5t309 60q141 0 255.5 -34t186 -85.5t124.5 -123.5t78.5 -136.5t39.5 -136.5l-174 -13q-56 195 -189.5 284t-320.5 89q-124 0 -226 -37t-170 -99.5t-114.5 -146t-67 -174t-20.5 -186.5t18.5 -185t63 -173.5t111.5 -147t171 -100 t234 -37.5q211 0 340 112t181 314l174 -21q-21 -86 -54 -160.5t-91 -150.5t-133 -129.5t-187.5 -87t-247.5 -33.5q-166 0 -307 56t-242 158t-158 252.5t-57 332.5z" />
<glyph unicode="D" horiz-adv-x="1593" d="M190 0v1540h478q177 0 317 -45t228 -119t146 -175t81.5 -205t23.5 -218q0 -117 -28 -228.5t-88 -211.5t-144.5 -175t-206 -119t-264.5 -44h-543zM362 156h338q114 0 210.5 34.5t164 94t114.5 139.5t69 170t22 186t-20.5 181.5t-67.5 164t-117 135t-177 90t-241 33.5h-295 v-1228z" />
<glyph unicode="E" d="M174 0v1540h868v-156h-696v-516h676v-155h-676v-557h696v-156h-868z" />
<glyph unicode="F" d="M174 0v1540h868v-156h-696v-516h676v-155h-676v-713h-172z" />
<glyph unicode="G" horiz-adv-x="1705" d="M129 770q0 124 30 240t93 217.5t152.5 177.5t215.5 120t275 44q131 0 246 -39.5t196 -105.5t133 -151t66 -177l-170 -17q-15 50 -38.5 94t-64.5 89.5t-93.5 77.5t-131 52.5t-172.5 20.5q-176 0 -303 -87t-188.5 -232.5t-61.5 -331.5q0 -287 152.5 -461t394.5 -174 q113 0 204 35t148 89.5t97.5 129.5t58.5 145.5t25 145.5h-521v155h705q-2 -136 -26.5 -257.5t-79.5 -232.5t-136 -191t-203 -127.5t-274 -47.5q-228 0 -394 101.5t-250.5 281t-84.5 416.5z" />
<glyph unicode="H" horiz-adv-x="1478" d="M174 0v1540h172v-672h787v672h172v-1540h-172v713h-787v-713h-172z" />
<glyph unicode="I" horiz-adv-x="569" d="M199 0v1540h172v-1540h-172z" />
<glyph unicode="J" horiz-adv-x="909" d="M33 -10v153q63 -16 188 -16q182 0 262 94t80 279v884h-520v156h692v-1077q0 -109 -27.5 -195.5t-85.5 -154.5t-159 -105t-238 -37q-117 0 -192 19z" />
<glyph unicode="K" horiz-adv-x="1251" d="M174 0v1540h172v-727h4l643 727h232l-684 -737l694 -803h-238l-647 780h-4v-780h-172z" />
<glyph unicode="L" d="M174 0v1540h172v-1384h721v-156h-893z" />
<glyph unicode="M" horiz-adv-x="1933" d="M182 0v1540h203l582 -1298l581 1298h203v-1540h-172v1229h-4l-553 -1229h-111l-553 1219h-4v-1219h-172z" />
<glyph unicode="N" horiz-adv-x="1593" d="M182 0v1540h187l866 -1270h4v1270h172v-1540h-186l-867 1270h-4v-1270h-172z" />
<glyph unicode="O" horiz-adv-x="1822" d="M129 770q0 171 60 320.5t164 254t249 164.5t309 60q226 0 403 -95.5t278.5 -278.5t101.5 -425q0 -171 -60 -320.5t-164.5 -254t-249.5 -164.5t-309 -60q-169 0 -313 56t-248 158t-162.5 252.5t-58.5 332.5zM313 770q0 -66 14.5 -136t44 -143t79 -138t113 -115.5 t153.5 -80.5t194 -30t194 30t153.5 80.5t113 115.5t79 138t44 143t14.5 136q0 96 -20.5 186.5t-67 174t-114.5 146t-170 99.5t-226 37t-226 -37t-170 -99.5t-114.5 -146t-67 -174t-20.5 -186.5z" />
<glyph unicode="P" horiz-adv-x="1251" d="M174 0v1540h490q236 0 369.5 -126t133.5 -349t-145.5 -347t-382.5 -124h-293v-594h-172zM346 750h266q77 0 141.5 17.5t117.5 53.5t82.5 99t29.5 147q0 161 -95.5 239t-260.5 78h-281v-634z" />
<glyph unicode="Q" horiz-adv-x="1822" d="M129 770q0 171 60 320.5t164 254t249 164.5t309 60q226 0 403 -95.5t278.5 -278.5t101.5 -425q0 -157 -50 -294.5t-141 -242.5l201 -200l-102 -103l-205 205q-210 -164 -486 -164q-169 0 -313 56t-248 158t-162.5 252.5t-58.5 332.5zM313 770q0 -66 14.5 -136t44 -143 t79 -138t113 -115.5t153.5 -80.5t194 -30q220 0 367 127l-166 166l102 102l162 -162q67 92 100 200.5t33 209.5q0 96 -20.5 186.5t-67 174t-114.5 146t-170 99.5t-226 37t-226 -37t-170 -99.5t-114.5 -146t-67 -174t-20.5 -186.5z" />
<glyph unicode="R" horiz-adv-x="1251" d="M174 0v1540h477q100 0 182 -17t138 -47.5t97.5 -70t65 -87.5t34 -96.5t10.5 -101.5q0 -99 -30 -179t-82.5 -132t-111.5 -84.5t-127 -48.5l410 -676h-211l-379 659h-301v-659h-172zM346 815h307q156 0 248 73t92 208q0 66 -19.5 117t-52 82.5t-78.5 52t-94.5 28.5 t-105.5 8h-297v-569z" />
<glyph unicode="S" horiz-adv-x="1366" d="M123 426h174q46 -299 391 -299q95 0 168.5 26t116.5 68.5t64.5 92.5t21.5 104q0 122 -78 178t-289 100q-140 29 -233 62.5t-161.5 83t-100 119t-31.5 165.5q0 191 144 317t374 126q110 0 197 -24t143.5 -63t96 -96t59.5 -116t30 -131h-176q-3 39 -15.5 76.5t-40 74 t-66 63.5t-97 43.5t-129.5 16.5q-88 0 -156.5 -24t-109.5 -65t-61.5 -91t-20.5 -107q0 -42 14.5 -76t50.5 -68t106.5 -62t172.5 -48q153 -30 252 -63t172 -83.5t105 -121t32 -170.5q0 -90 -33 -170.5t-98 -147t-176.5 -106t-255.5 -39.5q-258 0 -401.5 120t-155.5 335z" />
<glyph unicode="T" d="M16 1384v156h1106v-156h-467v-1384h-172v1384h-467z" />
<glyph unicode="U" horiz-adv-x="1478" d="M174 510v1030h172v-1003q0 -205 105 -307.5t288 -102.5q83 0 152.5 26t124.5 78t86 139t31 201v969h172v-971q0 -147 -44 -262.5t-122 -188t-179.5 -110t-220.5 -37.5q-274 0 -419.5 146.5t-145.5 392.5z" />
<glyph unicode="V" horiz-adv-x="1253" d="M20 1540h195l414 -1300h4l414 1300h186l-522 -1540h-160z" />
<glyph unicode="W" horiz-adv-x="1933" d="M31 1540h182l303 -1274h4l367 1274h160l366 -1284h4l303 1284h183l-408 -1540h-156l-370 1286h-4l-371 -1286h-156z" />
<glyph unicode="X" horiz-adv-x="1253" d="M20 0l504 782l-485 758h219l377 -633l377 633h211l-488 -758l498 -782h-223l-387 651l-392 -651h-211z" />
<glyph unicode="Y" horiz-adv-x="1253" d="M14 1540h211l406 -758l397 758h211l-522 -911v-629h-172v629z" />
<glyph unicode="Z" horiz-adv-x="1251" d="M43 0v143l946 1241h-872v156h1091v-143l-946 -1241h924v-156h-1143z" />
<glyph unicode="[" horiz-adv-x="684" d="M213 -393v1995h389v-132h-229v-1732h229v-131h-389z" />
<glyph unicode="\" horiz-adv-x="796" d="M33 1569h131l600 -1598h-131z" />
<glyph unicode="]" horiz-adv-x="684" d="M82 -262h229v1732h-229v132h389v-1995h-389v131z" />
<glyph unicode="^" horiz-adv-x="1228" d="M96 608l459 908h119l459 -908h-132l-387 770l-387 -770h-131z" />
<glyph unicode="_" horiz-adv-x="1024" d="M0 -154h1024v-102h-1024v102z" />
<glyph unicode="`" horiz-adv-x="454" d="M18 1516h222l180 -291h-135z" />
<glyph unicode="a" d="M98 276q0 147 89.5 225.5t293.5 88.5q232 12 336 16v78q0 110 -58.5 174t-201.5 64q-132 0 -193 -50t-77 -145h-158q47 326 430 326q204 0 311 -89.5t107 -254.5v-508q0 -68 14 -201h-174v135h-4q-34 -60 -95.5 -98.5t-122 -52t-126.5 -13.5q-175 0 -273 88t-98 217z M270 285q0 -79 64 -131t170 -52q54 0 107.5 15.5t100.5 45.5t76 80.5t29 114.5v127l-270 -12q-138 -6 -207.5 -49t-69.5 -139z" />
<glyph unicode="b" horiz-adv-x="1251" d="M154 0v1540h159v-694h4q17 26 32.5 46t48.5 50t69 49.5t92 34t121 14.5q66 0 131 -18t127.5 -59.5t109.5 -101.5t76 -150t29 -199q0 -238 -140 -389.5t-354 -151.5q-60 0 -112 14.5t-85.5 34.5t-64.5 51.5t-46.5 53.5t-33.5 53h-4v-178h-159zM313 504q0 -167 92.5 -278 t249.5 -111q104 0 179 54.5t111 142t36 196.5q0 98 -27 174t-73.5 122t-105 69.5t-126.5 23.5q-65 0 -124.5 -24.5t-107 -71t-76 -123.5t-28.5 -174z" />
<glyph unicode="c" d="M98 508q0 124 43 228.5t115.5 173t167 106t197.5 37.5q176 0 298 -89.5t152 -265.5l-164 -16q-11 32 -20.5 54.5t-32.5 58t-50.5 58t-73 39.5t-101.5 17q-155 0 -257 -110.5t-102 -292.5q0 -78 21 -147t62 -124.5t110 -87.5t158 -32q215 0 286 237l170 -20 q-17 -56 -41 -105.5t-63 -97.5t-88 -82t-117.5 -55t-149.5 -21q-124 0 -224 44t-164 118.5t-98 171t-34 203.5z" />
<glyph unicode="d" horiz-adv-x="1251" d="M98 512q0 109 29 199t76 150t109.5 101.5t127.5 59.5t131 18q65 0 121 -14.5t92 -34t69 -49.5t48.5 -50t32.5 -46h4v694h160v-1540h-160v178h-4q-18 -31 -33.5 -53t-46.5 -53.5t-64.5 -51.5t-85.5 -34.5t-112 -14.5q-214 0 -354 151.5t-140 389.5zM270 508 q0 -109 36 -196.5t111 -142t179 -54.5q157 0 249.5 111t92.5 278q0 97 -28.5 174t-76 123.5t-107 71t-124.5 24.5q-68 0 -126.5 -23.5t-105 -69.5t-73.5 -122t-27 -174z" />
<glyph unicode="e" d="M98 473q0 260 133 420t357 160q223 0 356 -138.5t133 -394.5v-45h-807q0 -171 91 -265.5t227 -94.5q216 0 299 198l164 -24q-144 -318 -471 -318q-213 0 -347.5 143t-134.5 359zM274 606h631q-18 143 -98 223t-215 80q-75 0 -135.5 -27.5t-98 -72.5t-58.5 -96.5 t-26 -106.5z" />
<glyph unicode="f" horiz-adv-x="684" d="M63 893v131h191v293q0 78 36.5 130t89.5 72.5t120 20.5q90 0 121 -6v-156q-27 6 -97 6q-110 0 -110 -102v-258h207v-131h-207v-893h-160v893h-191z" />
<glyph unicode="g" horiz-adv-x="1251" d="M98 524q0 116 39 216t105.5 168t156 106.5t189.5 38.5q103 0 194.5 -53.5t151.5 -149.5h4v174h160v-926q0 -528 -531 -528q-189 0 -305.5 89t-128.5 247l172 8q34 -201 266 -201q107 0 181 32.5t113.5 94t56 134t16.5 167.5v84h-4q-53 -117 -151.5 -171t-213.5 -54 q-147 0 -255 70t-162 187.5t-54 266.5zM270 539q0 -182 80.5 -289t245.5 -107q63 0 122 24.5t109 71t80.5 125t30.5 177.5q0 71 -21 136t-61.5 117.5t-106 83.5t-147.5 31q-146 0 -239 -95.5t-93 -274.5z" />
<glyph unicode="h" d="M154 0v1540h159v-690h4q102 190 326 190q41 0 83 -8.5t90 -32.5t84.5 -61.5t60.5 -102t24 -147.5v-688h-160v618q0 77 -18.5 133t-51.5 87t-71 45t-84 14q-119 0 -203 -87.5t-84 -240.5v-569h-159z" />
<glyph unicode="i" horiz-adv-x="454" d="M106 1419q0 51 35 86t86 35t86 -35t35 -86t-35 -86t-86 -35t-86 35t-35 86zM147 0v1024h160v-1024h-160z" />
<glyph unicode="j" horiz-adv-x="454" d="M-51 -287h51q80 0 113.5 34.5t33.5 129.5v1147h160v-1157q0 -155 -68 -226t-239 -71h-51v143zM106 1419q0 51 35 86t86 35t86 -35t35 -86t-35 -86t-86 -35t-86 35t-35 86z" />
<glyph unicode="k" horiz-adv-x="1024" d="M154 0v1540h159v-969l459 453h219l-495 -467l503 -557h-223l-463 539v-539h-159z" />
<glyph unicode="l" horiz-adv-x="454" d="M147 0v1540h160v-1540h-160z" />
<glyph unicode="m" horiz-adv-x="1708" d="M154 0v1024h157v-164h4q23 38 46.5 65.5t59.5 56t87 43.5t115 15q53 0 98 -14t74 -34t52.5 -49t36 -52.5t21.5 -50.5q49 98 120 149t194 51q165 0 250 -87.5t85 -252.5v-700h-159v657q0 128 -51 184t-170 56q-97 0 -168.5 -78.5t-71.5 -200.5v-618h-160v657 q0 128 -50 184t-165 56q-101 0 -173.5 -78t-72.5 -201v-618h-159z" />
<glyph unicode="n" d="M154 0v1024h159v-174h4q102 190 326 190q41 0 83 -8.5t90 -32.5t84.5 -61.5t60.5 -102t24 -147.5v-688h-160v618q0 77 -18.5 133t-51.5 87t-71 45t-84 14q-119 0 -203 -87.5t-84 -240.5v-569h-159z" />
<glyph unicode="o" horiz-adv-x="1253" d="M98 512q0 82 21.5 160.5t66 147.5t106.5 121t148.5 82t186.5 30q108 0 197 -30.5t149.5 -81.5t102 -121t60.5 -147t19 -161q0 -104 -35 -200t-99.5 -172.5t-166.5 -122.5t-227 -46q-108 0 -197 30.5t-149.5 81.5t-102.5 121t-61 147t-19 161zM270 512q0 -176 97 -286.5 t260 -110.5t259.5 110.5t96.5 286.5t-96.5 286.5t-259.5 110.5t-260 -110.5t-97 -286.5z" />
<glyph unicode="p" horiz-adv-x="1251" d="M154 -430v1454h159v-178h4q17 26 32.5 46t48.5 50t69 49.5t92 34t121 14.5q66 0 131 -18t127.5 -59.5t109.5 -101.5t76 -150t29 -199q0 -238 -140 -389.5t-354 -151.5q-124 0 -211 56.5t-131 138.5h-4v-596h-159zM313 504q0 -167 92.5 -278t249.5 -111q104 0 179 54.5 t111 142t36 196.5q0 98 -27 174t-73.5 122t-105 69.5t-126.5 23.5q-65 0 -124.5 -24.5t-107 -71t-76 -123.5t-28.5 -174z" />
<glyph unicode="q" horiz-adv-x="1251" d="M98 512q0 109 29 199t76 150t109.5 101.5t127.5 59.5t131 18q65 0 121 -14.5t92 -34t69 -49.5t48.5 -50t32.5 -46h4v178h160v-1454h-160v596h-4q-44 -82 -131 -138.5t-211 -56.5q-214 0 -354 151.5t-140 389.5zM270 508q0 -109 36 -196.5t111 -142t179 -54.5 q157 0 249.5 111t92.5 278q0 97 -28.5 174t-76 123.5t-107 71t-124.5 24.5q-68 0 -126.5 -23.5t-105 -69.5t-73.5 -122t-27 -174z" />
<glyph unicode="r" horiz-adv-x="684" d="M154 0v1024h155v-225h4q91 241 295 241h58v-168h-52q-301 0 -301 -385v-487h-159z" />
<glyph unicode="s" horiz-adv-x="1024" d="M78 301h160q2 -35 16.5 -66t44 -59t83 -44.5t126.5 -16.5q124 -1 202 41q77 41 76 116q0 44 -25 71q-24 26 -89.5 47.5t-194.5 43.5q-85 14 -146.5 34t-115.5 54t-81.5 87t-27.5 124q0 147 116 233.5t304 86.5q174 0 286 -92.5t112 -241.5h-160q-7 81 -67.5 135.5 t-184.5 54.5q-110 0 -178 -43t-68 -116q0 -72 62 -111.5t207 -63.5q83 -14 143.5 -29t113.5 -38.5t85.5 -54t50.5 -73t18 -97.5q0 -59 -24 -112.5t-73 -99.5t-135.5 -73t-201.5 -27q-399 0 -434 330z" />
<glyph unicode="t" horiz-adv-x="684" d="M63 893v131h191v299h160v-299h207v-131h-207v-629q0 -70 22.5 -101.5t75.5 -31.5q60 0 106 6v-143q-86 -6 -161 -6q-108 0 -155.5 55t-47.5 203v647h-191z" />
<glyph unicode="u" d="M154 350v674h159v-631q0 -77 18.5 -133t51.5 -86.5t71.5 -44.5t84.5 -14q119 0 202.5 87t83.5 240v582h160v-1024h-160v162h-4q-102 -191 -325 -191q-49 0 -93.5 10t-91 36.5t-80.5 67.5t-55.5 109.5t-21.5 155.5z" />
<glyph unicode="v" horiz-adv-x="1024" d="M16 1024h181l313 -795h4l322 795h172l-426 -1024h-146z" />
<glyph unicode="w" horiz-adv-x="1593" d="M33 1024h176l254 -782h4l254 782h151l261 -782h4l254 782h170l-353 -1024h-157l-252 782h-4l-250 -782h-156z" />
<glyph unicode="x" horiz-adv-x="1024" d="M16 0l394 528l-369 496h213l270 -410l271 410h200l-377 -496l390 -528h-209l-283 422l-301 -422h-199z" />
<glyph unicode="y" horiz-adv-x="1024" d="M16 1024h183l313 -848h4l315 848h177l-598 -1454h-174l196 450z" />
<glyph unicode="z" horiz-adv-x="909" d="M57 0v139l596 742h-575v143h774v-139l-596 -742h596v-143h-795z" />
<glyph unicode="{" horiz-adv-x="684" d="M143 545v119q72 0 108 62t36 208v455q0 100 57 156.5t174 56.5h84v-119h-43q-61 0 -87 -30t-26 -89v-442q0 -248 -155 -316v-4q155 -68 155 -315v-443q0 -59 26 -88.5t87 -29.5h43v-119h-84q-117 0 -174 56.5t-57 156.5v454q0 146 -36 208.5t-108 62.5z" />
<glyph unicode="|" horiz-adv-x="454" d="M168 -29v1598h119v-1598h-119z" />
<glyph unicode="}" horiz-adv-x="684" d="M82 -274h43q61 0 87 29.5t26 88.5v443q0 247 155 315v4q-155 68 -155 316v442q0 59 -26 89t-87 30h-43v119h84q117 0 174 -56.5t57 -156.5v-455q0 -146 36 -208t108 -62v-119q-72 0 -108 -62.5t-36 -208.5v-454q0 -100 -57 -156.5t-174 -56.5h-84v119z" />
<glyph unicode="~" horiz-adv-x="1228" d="M141 469q92 176 256 176q39 0 82 -10.5t70 -21t84 -35.5q8 -3 44 -18.5t48 -20.5t37 -14t41 -12t31 -3q38 0 73.5 23t56.5 49t50 71l73 -86q-92 -176 -256 -176q-38 0 -82 11.5t-67.5 21t-85.5 35.5q-9 4 -32 14t-33.5 14t-29.5 12t-30.5 11.5t-26.5 8t-26.5 6t-22.5 1.5 q-38 0 -73.5 -23t-56.5 -49t-50 -71z" />
<glyph unicode="&#xa1;" horiz-adv-x="684" d="M227 1020q0 47 34 81t81 34t81 -34t34 -81t-34 -81t-81 -34t-81 34t-34 81zM262 -430v1190h160v-1190h-160z" />
<glyph unicode="&#xa2;" d="M80 508q0 115 36.5 213t99 165t144.5 109t175 52v141h94v-135q167 -8 281.5 -97.5t142.5 -257.5l-164 -16q-10 29 -19.5 52t-31 56.5t-47.5 56t-68.5 41t-93.5 21.5v-790q194 12 260 233l170 -20q-21 -69 -53.5 -127t-83 -110.5t-125.5 -84t-168 -35.5v-227h-94v227 q-109 11 -196.5 59t-143.5 121t-85.5 163.5t-29.5 189.5zM252 506q0 -148 71.5 -255.5t211.5 -129.5v780q-126 -25 -204.5 -130.5t-78.5 -264.5z" />
<glyph unicode="&#xa3;" d="M72 113q84 37 147 107t93 145.5t30 146.5q0 115 -39 205h-225v106h172q-96 142 -96 305q0 174 126 293t312 119q100 0 178 -24t126 -62.5t79.5 -92t44.5 -106t16 -110.5l-172 -12q-7 128 -76.5 196t-185.5 68q-121 0 -192.5 -73t-71.5 -198q0 -58 21 -124.5t77 -178.5 h432v-106h-391q25 -91 25 -162q0 -62 -16.5 -119t-49 -105.5t-64.5 -84.5t-77 -78l4 -4l11 4q10 4 12 4.5t12 4t14 4.5t14.5 3.5t17 3.5t18.5 3t22.5 2.5t24 1t28.5 0.5q58 0 186 -33q117 -31 166 -31q50 0 104 19t87 47l51 -154q-106 -68 -254 -68q-77 0 -199 35 q-53 16 -124 28.5t-111 12.5q-76 0 -142 -24t-100 -56z" />
<glyph unicode="&#xa4;" d="M57 330l115 114q-111 133 -111 314q0 180 111 313l-115 115l84 84l115 -115q136 111 313 111q181 0 314 -111l114 115l84 -84l-114 -115q110 -135 110 -313q0 -179 -110 -314l114 -114l-84 -84l-114 114q-135 -110 -314 -110q-178 0 -313 110l-115 -114zM193 758 q0 -160 111.5 -274.5t264.5 -114.5t265 114.5t112 274.5t-112 274.5t-265 114.5t-264.5 -114.5t-111.5 -274.5z" />
<glyph unicode="&#xa5;" d="M14 1516h205l350 -746l351 746h204l-407 -775h233v-118h-295l-6 -11v-155h301v-119h-301v-338h-160v338h-301v119h301v155l-6 11h-295v118h234z" />
<glyph unicode="&#xa6;" horiz-adv-x="454" d="M168 -29v598h119v-598h-119zM168 971v598h119v-598h-119z" />
<glyph unicode="&#xa7;" d="M125 555q0 124 68.5 213.5t187.5 120.5v4q-104 30 -157.5 112.5t-53.5 204.5q0 149 111.5 254t296.5 105q177 0 283 -95.5t112 -259.5h-172q-10 113 -67 162t-161 49q-62 0 -109 -21t-72.5 -54.5t-37.5 -69t-12 -70.5q0 -61 23 -105.5t62 -71t89.5 -45.5t106 -34 t111 -31.5t106 -43t89.5 -63t62 -97.5t23 -141q0 -127 -79 -225.5t-179 -112.5v-4q113 -31 170 -113.5t57 -188.5q0 -177 -115 -285t-301 -108q-386 0 -411 359h172q1 -70 34.5 -120t83 -72.5t107.5 -22.5q125 0 191.5 62t66.5 161q0 56 -19 98.5t-52 67t-77 44t-93.5 30.5 t-101.5 26.5t-101.5 31t-93.5 44.5t-77 67t-52 98.5t-19 139.5zM297 563q0 -99 68.5 -170t203.5 -71q123 0 198 68.5t75 178.5q0 102 -75 168t-206 66q-126 0 -195 -69.5t-69 -170.5z" />
<glyph unicode="&#xa8;" horiz-adv-x="454" d="M-98 1352q0 47 33.5 80.5t80.5 33.5t81 -33.5t34 -80.5t-34 -81t-81 -34t-80.5 34t-33.5 81zM324 1352q0 47 33.5 80.5t80.5 33.5t81 -33.5t34 -80.5t-34 -81t-81 -34t-80.5 34t-33.5 81z" />
<glyph unicode="&#xa9;" horiz-adv-x="1638" d="M20 770q0 162 63.5 310t170.5 255t255 170.5t310 63.5t310 -63.5t255 -170.5t170.5 -255t63.5 -310t-63.5 -310t-170.5 -255t-255 -170.5t-310 -63.5t-310 63.5t-255 170.5t-170.5 255t-63.5 310zM139 770q0 -146 52.5 -275t143 -220.5t216.5 -144t268 -52.5t268 52.5 t216.5 144t143 220.5t52.5 275t-52.5 275t-143 220.5t-216.5 144t-268 52.5t-268 -52.5t-216.5 -144t-143 -220.5t-52.5 -275zM362 774q0 221 128.5 360.5t349.5 139.5q160 0 272 -88.5t133 -245.5h-125q-21 98 -95.5 162.5t-182.5 64.5q-173 0 -267 -107.5t-94 -283.5 q0 -182 94.5 -289.5t270.5 -107.5q107 0 181.5 66t92.5 167h125q-32 -154 -140.5 -247t-258.5 -93q-145 0 -256 66.5t-169.5 180t-58.5 255.5z" />
<glyph unicode="&#xaa;" horiz-adv-x="739" d="M74 1090q0 89 58.5 137.5t189.5 52.5l213 8v53q0 65 -38 105.5t-126 40.5q-155 0 -176 -117h-119q33 199 297 199q280 0 280 -211v-316q0 -42 13 -122h-125v81h-4q-57 -98 -232 -98q-96 0 -163.5 51.5t-67.5 135.5zM193 1102q0 -56 41.5 -86.5t107.5 -30.5q75 0 134 41 t59 115v78l-201 -9q-59 -2 -100 -27t-41 -81z" />
<glyph unicode="&#xab;" d="M207 541l225 368h143l-229 -368l223 -377h-143zM563 541l225 368h144l-230 -368l224 -377h-144z" />
<glyph unicode="&#xac;" horiz-adv-x="1228" d="M96 662v118h1037v-559h-119v441h-918z" />
<glyph unicode="&#xad;" horiz-adv-x="684" d="M90 459v155h504v-155h-504z" />
<glyph unicode="&#xae;" horiz-adv-x="1638" d="M20 770q0 162 63.5 310t170.5 255t255 170.5t310 63.5t310 -63.5t255 -170.5t170.5 -255t63.5 -310t-63.5 -310t-170.5 -255t-255 -170.5t-310 -63.5t-310 63.5t-255 170.5t-170.5 255t-63.5 310zM139 770q0 -146 52.5 -275t143 -220.5t216.5 -144t268 -52.5t268 52.5 t216.5 144t143 220.5t52.5 275t-52.5 275t-143 220.5t-216.5 144t-268 52.5t-268 -52.5t-216.5 -144t-143 -220.5t-52.5 -275zM508 301v944h371q165 0 245 -66t80 -200q0 -122 -71.5 -190.5t-176.5 -81.5l267 -406h-144l-258 404h-194v-404h-119zM627 811h209 q130 0 189.5 32.5t59.5 127.5q0 98 -52.5 133t-158.5 35h-247v-328z" />
<glyph unicode="&#xaf;" horiz-adv-x="454" d="M-53 1296v119h561v-119h-561z" />
<glyph unicode="&#xb0;" horiz-adv-x="819" d="M115 1245q0 123 86 209t209 86t209 -86t86 -209t-86 -209t-209 -86t-209 86t-86 209zM209 1245q0 -78 61.5 -139.5t139.5 -61.5t139 61.5t61 139.5t-61 139.5t-139 61.5t-139.5 -61.5t-61.5 -139.5z" />
<glyph unicode="&#xb1;" horiz-adv-x="1228" d="M96 0v119h1037v-119h-1037zM96 557v119h459v360h119v-360h459v-119h-459v-358h-119v358h-459z" />
<glyph unicode="&#xb2;" horiz-adv-x="739" d="M68 614v119l313 297q77 74 118.5 134t41.5 124q0 63 -42 98t-124 35q-178 0 -182 -174h-119q1 79 28 137.5t71.5 91.5t96.5 48.5t111 15.5q143 0 217 -66t74 -165q0 -91 -40.5 -168t-127.5 -158l-271 -250h439v-119h-604z" />
<glyph unicode="&#xb3;" horiz-adv-x="739" d="M43 854l119 8q14 -141 186 -141q89 0 141 48.5t52 131.5q0 86 -55 134t-140 48q-90 0 -131 -28l-10 4v102l280 273h-391v106h541v-106l-270 -260v-5q36 9 59 9q58 0 113.5 -28.5t95 -91t39.5 -145.5q0 -128 -82 -213.5t-240 -85.5q-80 0 -137.5 17t-92 50.5t-52.5 75 t-25 97.5z" />
<glyph unicode="&#xb4;" horiz-adv-x="454" d="M35 1225l180 291h221l-266 -291h-135z" />
<glyph unicode="&#xb5;" d="M154 -430v1454h159v-631q0 -77 18.5 -133t51.5 -86.5t71.5 -44.5t84.5 -14q119 0 202.5 87t83.5 240v582h160v-1024h-160v162h-4q-102 -191 -325 -191q-113 0 -183 82v-483h-159z" />
<glyph unicode="&#xb6;" horiz-adv-x="1228" d="M117 1143q0 192 121 294.5t327 102.5h479v-1970h-147v1864h-205v-1864h-147v1188q-188 0 -308 106.5t-120 278.5z" />
<glyph unicode="&#xb7;" horiz-adv-x="569" d="M164 670q0 51 35 86t86 35t86 -35t35 -86t-35 -86t-86 -35t-86 35t-35 86z" />
<glyph unicode="&#xb8;" horiz-adv-x="454" d="M8 -414l33 88q64 -39 133 -39q50 0 81.5 19t31.5 61q0 86 -90 86q-47 0 -84 -22l-35 43l129 178h98l-94 -127h4q27 10 78 10q65 0 109 -44t44 -105q0 -95 -74.5 -144t-174.5 -49q-23 0 -46 3t-46 9.5t-36 10.5t-35.5 12.5t-25.5 9.5z" />
<glyph unicode="&#xb9;" horiz-adv-x="739" d="M147 1260v114q63 21 140.5 74t115.5 92h76v-926h-131v746q-82 -62 -201 -100z" />
<glyph unicode="&#xba;" horiz-adv-x="815" d="M63 1237q0 136 93 234t252 98q88 0 155.5 -27.5t107.5 -75t60.5 -105.5t20.5 -124q0 -88 -38.5 -163t-118.5 -123t-187 -48q-88 0 -155.5 27.5t-108 75t-61 106t-20.5 125.5zM182 1237q0 -105 62 -172.5t164 -67.5t163.5 67t61.5 173q0 104 -62 171t-163 67 q-102 0 -164 -67t-62 -171z" />
<glyph unicode="&#xbb;" d="M207 164l229 368l-223 377h143l219 -377l-225 -368h-143zM563 164l230 368l-224 377h144l219 -377l-225 -368h-144z" />
<glyph unicode="&#xbc;" horiz-adv-x="1708" d="M82 1260v114q63 21 140.5 74t115.5 92h76v-926h-131v746q-82 -62 -201 -100zM272 -25l947 1565h137l-946 -1565h-138zM963 223v109l428 594h127v-584h108v-119h-108v-223h-132v223h-423zM1096 342h290v403h-4z" />
<glyph unicode="&#xbd;" horiz-adv-x="1708" d="M82 1260v114q63 21 140.5 74t115.5 92h76v-926h-131v746q-82 -62 -201 -100zM190 -25l947 1565h137l-946 -1565h-138zM1022 0v119l313 297q77 74 118.5 134t41.5 124q0 63 -42 98t-124 35q-178 0 -182 -174h-119q1 79 28 137.5t71.5 91.5t96.5 48.5t111 15.5 q143 0 217 -66.5t74 -165.5q0 -91 -40 -167.5t-128 -157.5l-270 -250h438v-119h-604z" />
<glyph unicode="&#xbe;" horiz-adv-x="1708" d="M82 854l119 8q14 -141 186 -141q89 0 141 48.5t52 131.5q0 86 -55 134t-140 48q-90 0 -131 -28l-10 4v102l280 273h-391v106h541v-106l-271 -260v-5q36 9 60 9q58 0 113.5 -28.5t95 -91t39.5 -145.5q0 -128 -82 -213.5t-240 -85.5q-80 0 -137.5 17t-92 50.5t-52.5 75 t-25 97.5zM375 -25l946 1565h137l-946 -1565h-137zM963 223v109l428 594h127v-584h108v-119h-108v-223h-132v223h-423zM1096 342h290v403h-4z" />
<glyph unicode="&#xbf;" d="M164 -74q0 71 16 126.5t53.5 105t75.5 85t107 89.5q147 117 147 295v133h160v-105q0 -139 -37 -232t-149 -179q-75 -57 -115.5 -100t-63 -98.5t-22.5 -127.5q0 -102 62 -167.5t171 -65.5q123 0 184.5 76.5t61.5 209.5h160q0 -57 -9.5 -110.5t-37 -113.5t-71 -104 t-119 -73t-173.5 -29q-84 0 -155.5 24t-127 70t-87 121t-31.5 170zM528 1020q0 47 34 81t81 34t81 -34t34 -81t-34 -81t-81 -34t-81 34t-34 81z" />
<glyph unicode="&#xc0;" horiz-adv-x="1368" d="M16 0l580 1540h176l580 -1540h-195l-153 434h-639l-154 -434h-195zM383 1909h221l180 -291h-135zM422 590h524l-260 733h-4z" />
<glyph unicode="&#xc1;" horiz-adv-x="1368" d="M16 0l580 1540h176l580 -1540h-195l-153 434h-639l-154 -434h-195zM422 590h524l-260 733h-4zM563 1618l180 291h222l-267 -291h-135z" />
<glyph unicode="&#xc2;" horiz-adv-x="1368" d="M16 0l580 1540h176l580 -1540h-195l-153 434h-639l-154 -434h-195zM385 1618l203 291h188l207 -291h-166l-135 190l-135 -190h-162zM422 590h524l-260 733h-4z" />
<glyph unicode="&#xc3;" horiz-adv-x="1368" d="M16 0l580 1540h176l580 -1540h-195l-153 434h-639l-154 -434h-195zM336 1634q13 106 65.5 166t147.5 60q63 0 158 -35q12 -5 34 -14t35.5 -14.5t30.5 -10t31 -4.5q44 0 66 29.5t24 64.5h104q-13 -106 -65.5 -165.5t-147.5 -59.5q-62 0 -157 35q-12 5 -34 14t-35.5 14.5 t-31 10t-31.5 4.5q-44 0 -66 -30t-24 -65h-104zM422 590h524l-260 733h-4z" />
<glyph unicode="&#xc4;" horiz-adv-x="1368" d="M16 0l580 1540h176l580 -1540h-195l-153 434h-639l-154 -434h-195zM358 1745q0 47 34 81t81 34t81 -34t34 -81t-34 -81t-81 -34t-81 34t-34 81zM422 590h524l-260 733h-4zM780 1745q0 47 34 81t81 34t81 -34t34 -81t-34 -81t-81 -34t-81 34t-34 81z" />
<glyph unicode="&#xc5;" horiz-adv-x="1368" d="M16 0l580 1540h176l580 -1540h-195l-153 434h-639l-154 -434h-195zM422 590h524l-260 733h-4zM475 1794q0 86 61.5 147.5t147.5 61.5t147.5 -61.5t61.5 -147.5t-61.5 -147.5t-147.5 -61.5t-147.5 61.5t-61.5 147.5zM557 1794q0 -52 37.5 -89.5t89.5 -37.5t89.5 37.5 t37.5 89.5t-37.5 89.5t-89.5 37.5t-89.5 -37.5t-37.5 -89.5z" />
<glyph unicode="&#xc6;" horiz-adv-x="1933" d="M-2 0l874 1540h936v-156h-659v-516h639v-155h-639v-557h659v-156h-831v381h-574l-206 -381h-199zM487 537h490v897h-4z" />
<glyph unicode="&#xc7;" horiz-adv-x="1705" d="M129 770q0 171 60 320.5t164 254t249 164.5t309 60q141 0 255.5 -34t186 -85.5t124.5 -123.5t78.5 -136.5t39.5 -136.5l-174 -13q-56 195 -189.5 284t-320.5 89q-124 0 -226 -37t-170 -99.5t-114.5 -146t-67 -174t-20.5 -186.5t18.5 -185t63 -173.5t111.5 -147t171 -100 t234 -37.5q211 0 340 112t181 314l176 -21q-20 -82 -51 -153.5t-84.5 -144.5t-123 -126.5t-172 -90.5t-225.5 -44l-73 -100h4q27 10 78 10q65 0 109 -44t44 -105q0 -95 -74.5 -144t-175.5 -49q-23 0 -46 3t-45.5 9.5t-36 10.5t-35 12.5t-25.5 9.5l33 88q64 -39 133 -39 q112 0 112 80q0 86 -90 86q-47 0 -84 -22l-35 43l109 151q-213 8 -376.5 106t-256 277t-92.5 414z" />
<glyph unicode="&#xc8;" d="M174 0v1540h868v-156h-696v-516h676v-155h-676v-557h696v-156h-868zM340 1909h221l180 -291h-135z" />
<glyph unicode="&#xc9;" d="M174 0v1540h868v-156h-696v-516h676v-155h-676v-557h696v-156h-868zM489 1618l181 291h221l-266 -291h-136z" />
<glyph unicode="&#xca;" d="M174 0v1540h868v-156h-696v-516h676v-155h-676v-557h696v-156h-868zM270 1618l203 291h189l206 -291h-166l-135 190l-135 -190h-162z" />
<glyph unicode="&#xcb;" d="M174 0v1540h868v-156h-696v-516h676v-155h-676v-557h696v-156h-868zM244 1745q0 47 33.5 81t80.5 34t81 -34t34 -81t-34 -81t-81 -34t-80.5 34t-33.5 81zM666 1745q0 47 33.5 81t80.5 34t81 -34t34 -81t-34 -81t-81 -34t-80.5 34t-33.5 81z" />
<glyph unicode="&#xcc;" horiz-adv-x="569" d="M76 1909h221l180 -291h-135zM199 0v1540h172v-1540h-172z" />
<glyph unicode="&#xcd;" horiz-adv-x="569" d="M143 1618l181 291h221l-266 -291h-136zM199 0v1540h172v-1540h-172z" />
<glyph unicode="&#xce;" horiz-adv-x="569" d="M-14 1618l202 291h189l207 -291h-166l-135 190l-136 -190h-161zM199 0v1540h172v-1540h-172z" />
<glyph unicode="&#xcf;" horiz-adv-x="569" d="M-92 1745q0 47 34 81t81 34t80.5 -34t33.5 -81t-33.5 -81t-80.5 -34t-81 34t-34 81zM199 0v1540h172v-1540h-172zM330 1745q0 47 33.5 81t80.5 34t81 -34t34 -81t-34 -81t-81 -34t-80.5 34t-33.5 81z" />
<glyph unicode="&#xd0;" horiz-adv-x="1593" d="M70 743v144h120v653h478q177 0 317 -45t228 -119t146 -175t81.5 -205t23.5 -218q0 -117 -28 -228.5t-88 -211.5t-144.5 -175t-206 -119t-264.5 -44h-543v743h-120zM362 156h338q114 0 210.5 34.5t164 94t114.5 139.5t69 170t22 186t-20.5 181.5t-67.5 164t-117 135 t-177 90t-241 33.5h-295v-497h476v-144h-476v-587z" />
<glyph unicode="&#xd1;" horiz-adv-x="1593" d="M182 0v1540h187l866 -1270h4v1270h172v-1540h-186l-867 1270h-4v-1270h-172zM449 1634q13 106 65.5 166t147.5 60q62 0 157 -35q12 -5 34 -14t35.5 -14.5t30.5 -10t31 -4.5q44 0 66 29.5t24 64.5h105q-13 -106 -65.5 -165.5t-147.5 -59.5q-63 0 -158 35q-12 5 -34 14 t-35.5 14.5t-30.5 10t-31 4.5q-44 0 -66 -30t-24 -65h-104z" />
<glyph unicode="&#xd2;" horiz-adv-x="1822" d="M129 770q0 171 60 320.5t164 254t249 164.5t309 60q226 0 403 -95.5t278.5 -278.5t101.5 -425q0 -171 -60 -320.5t-164.5 -254t-249.5 -164.5t-309 -60q-169 0 -313 56t-248 158t-162.5 252.5t-58.5 332.5zM313 770q0 -66 14.5 -136t44 -143t79 -138t113 -115.5 t153.5 -80.5t194 -30t194 30t153.5 80.5t113 115.5t79 138t44 143t14.5 136q0 96 -20.5 186.5t-67 174t-114.5 146t-170 99.5t-226 37t-226 -37t-170 -99.5t-114.5 -146t-67 -174t-20.5 -186.5zM631 1909h221l180 -291h-135z" />
<glyph unicode="&#xd3;" horiz-adv-x="1822" d="M129 770q0 171 60 320.5t164 254t249 164.5t309 60q226 0 403 -95.5t278.5 -278.5t101.5 -425q0 -171 -60 -320.5t-164.5 -254t-249.5 -164.5t-309 -60q-169 0 -313 56t-248 158t-162.5 252.5t-58.5 332.5zM313 770q0 -66 14.5 -136t44 -143t79 -138t113 -115.5 t153.5 -80.5t194 -30t194 30t153.5 80.5t113 115.5t79 138t44 143t14.5 136q0 96 -20.5 186.5t-67 174t-114.5 146t-170 99.5t-226 37t-226 -37t-170 -99.5t-114.5 -146t-67 -174t-20.5 -186.5zM791 1618l180 291h221l-266 -291h-135z" />
<glyph unicode="&#xd4;" horiz-adv-x="1822" d="M129 770q0 171 60 320.5t164 254t249 164.5t309 60q226 0 403 -95.5t278.5 -278.5t101.5 -425q0 -171 -60 -320.5t-164.5 -254t-249.5 -164.5t-309 -60q-169 0 -313 56t-248 158t-162.5 252.5t-58.5 332.5zM313 770q0 -66 14.5 -136t44 -143t79 -138t113 -115.5 t153.5 -80.5t194 -30t194 30t153.5 80.5t113 115.5t79 138t44 143t14.5 136q0 96 -20.5 186.5t-67 174t-114.5 146t-170 99.5t-226 37t-226 -37t-170 -99.5t-114.5 -146t-67 -174t-20.5 -186.5zM612 1618l203 291h189l206 -291h-166l-135 190l-135 -190h-162z" />
<glyph unicode="&#xd5;" horiz-adv-x="1822" d="M129 770q0 171 60 320.5t164 254t249 164.5t309 60q226 0 403 -95.5t278.5 -278.5t101.5 -425q0 -171 -60 -320.5t-164.5 -254t-249.5 -164.5t-309 -60q-169 0 -313 56t-248 158t-162.5 252.5t-58.5 332.5zM313 770q0 -66 14.5 -136t44 -143t79 -138t113 -115.5 t153.5 -80.5t194 -30t194 30t153.5 80.5t113 115.5t79 138t44 143t14.5 136q0 96 -20.5 186.5t-67 174t-114.5 146t-170 99.5t-226 37t-226 -37t-170 -99.5t-114.5 -146t-67 -174t-20.5 -186.5zM563 1634q13 106 65.5 166t147.5 60q63 0 158 -35q12 -5 34 -14t35.5 -14.5 t30.5 -10t31 -4.5q44 0 66 29.5t24 64.5h105q-13 -106 -65.5 -165.5t-147.5 -59.5q-63 0 -158 35q-12 5 -34 14t-35.5 14.5t-30.5 10t-31 4.5q-44 0 -66 -30t-24 -65h-105z" />
<glyph unicode="&#xd6;" horiz-adv-x="1822" d="M129 770q0 171 60 320.5t164 254t249 164.5t309 60q226 0 403 -95.5t278.5 -278.5t101.5 -425q0 -171 -60 -320.5t-164.5 -254t-249.5 -164.5t-309 -60q-169 0 -313 56t-248 158t-162.5 252.5t-58.5 332.5zM313 770q0 -66 14.5 -136t44 -143t79 -138t113 -115.5 t153.5 -80.5t194 -30t194 30t153.5 80.5t113 115.5t79 138t44 143t14.5 136q0 96 -20.5 186.5t-67 174t-114.5 146t-170 99.5t-226 37t-226 -37t-170 -99.5t-114.5 -146t-67 -174t-20.5 -186.5zM586 1745q0 47 33.5 81t80.5 34t81 -34t34 -81t-34 -81t-81 -34t-80.5 34 t-33.5 81zM1008 1745q0 47 33.5 81t80.5 34t81 -34t34 -81t-34 -81t-81 -34t-80.5 34t-33.5 81z" />
<glyph unicode="&#xd7;" horiz-adv-x="1228" d="M150 137l380 381l-380 381l83 84l379 -383l383 383l84 -84l-383 -381l383 -381l-84 -84l-383 383l-379 -383z" />
<glyph unicode="&#xd8;" horiz-adv-x="1822" d="M125 49l184 184q-180 212 -180 537q0 171 60 320.5t164 254t249 164.5t309 60q329 0 537 -193l182 185l68 -70l-182 -184q178 -212 178 -537q0 -171 -60 -320.5t-164.5 -254t-249.5 -164.5t-309 -60q-328 0 -536 193l-182 -184zM313 770q0 -100 32.5 -207t96.5 -196 l885 888q-158 158 -416 158q-124 0 -226 -37t-170 -99.5t-114.5 -146t-67 -174t-20.5 -186.5zM504 293q159 -166 407 -166q104 0 194 30t153.5 80.5t113 115.5t79 138t44 143t14.5 136q0 247 -118 412z" />
<glyph unicode="&#xd9;" horiz-adv-x="1478" d="M174 510v1030h172v-1003q0 -205 105 -307.5t288 -102.5q83 0 152.5 26t124.5 78t86 139t31 201v969h172v-971q0 -147 -44 -262.5t-122 -188t-179.5 -110t-220.5 -37.5q-274 0 -419.5 146.5t-145.5 392.5zM469 1909h221l180 -291h-135z" />
<glyph unicode="&#xda;" horiz-adv-x="1478" d="M174 510v1030h172v-1003q0 -205 105 -307.5t288 -102.5q83 0 152.5 26t124.5 78t86 139t31 201v969h172v-971q0 -147 -44 -262.5t-122 -188t-179.5 -110t-220.5 -37.5q-274 0 -419.5 146.5t-145.5 392.5zM618 1618l181 291h221l-266 -291h-136z" />
<glyph unicode="&#xdb;" horiz-adv-x="1478" d="M174 510v1030h172v-1003q0 -205 105 -307.5t288 -102.5q83 0 152.5 26t124.5 78t86 139t31 201v969h172v-971q0 -147 -44 -262.5t-122 -188t-179.5 -110t-220.5 -37.5q-274 0 -419.5 146.5t-145.5 392.5zM440 1618l203 291h188l207 -291h-166l-135 190l-135 -190h-162z " />
<glyph unicode="&#xdc;" horiz-adv-x="1478" d="M174 510v1030h172v-1003q0 -205 105 -307.5t288 -102.5q83 0 152.5 26t124.5 78t86 139t31 201v969h172v-971q0 -147 -44 -262.5t-122 -188t-179.5 -110t-220.5 -37.5q-274 0 -419.5 146.5t-145.5 392.5zM414 1745q0 47 33.5 81t80.5 34t81 -34t34 -81t-34 -81t-81 -34 t-80.5 34t-33.5 81zM836 1745q0 47 33.5 81t80.5 34t81 -34t34 -81t-34 -81t-81 -34t-80.5 34t-33.5 81z" />
<glyph unicode="&#xdd;" horiz-adv-x="1253" d="M14 1540h211l406 -758l397 758h211l-522 -911v-629h-172v629zM496 1618l180 291h221l-266 -291h-135z" />
<glyph unicode="&#xde;" horiz-adv-x="1251" d="M174 0v1540h172v-278h318q236 0 369.5 -126.5t133.5 -349.5q0 -111 -38.5 -201.5t-104 -148.5t-150.5 -89.5t-180 -31.5h-348v-315h-172zM346 471h266q77 0 141.5 17.5t117.5 53.5t82.5 99t29.5 147q0 161 -95.5 239.5t-260.5 78.5h-281v-635z" />
<glyph unicode="&#xdf;" d="M154 0v1165q0 84 24.5 156t72 128t126.5 88t180 32q54 0 108 -13t106 -42t92 -70.5t64.5 -103.5t24.5 -136q0 -77 -20.5 -140t-71 -114t-127.5 -76v-4q293 -73 293 -399q0 -127 -54.5 -236.5t-159 -178t-237.5 -68.5q-59 0 -133 16v143q7 -1 28 -5.5t42.5 -7.5t44.5 -3 q50 0 99.5 20t95 60t74 111.5t28.5 162.5q0 145 -88.5 228.5t-230.5 83.5h-56v143h70q109 0 176.5 63.5t67.5 178.5q0 111 -64 177t-186 66q-107 0 -168.5 -74.5t-61.5 -205.5v-1145h-159z" />
<glyph unicode="&#xe0;" d="M98 276q0 147 89.5 225.5t293.5 88.5q232 12 336 16v78q0 110 -58.5 174t-201.5 64q-132 0 -193 -50t-77 -145h-158q47 326 430 326q204 0 311 -89.5t107 -254.5v-508q0 -68 14 -201h-174v135h-4q-34 -60 -95.5 -98.5t-122 -52t-126.5 -13.5q-175 0 -273 88t-98 217z M270 285q0 -79 64 -131t170 -52q54 0 107.5 15.5t100.5 45.5t76 80.5t29 114.5v127l-270 -12q-138 -6 -207.5 -49t-69.5 -139zM299 1516h221l180 -291h-135z" />
<glyph unicode="&#xe1;" d="M98 276q0 147 89.5 225.5t293.5 88.5q232 12 336 16v78q0 110 -58.5 174t-201.5 64q-132 0 -193 -50t-77 -145h-158q47 326 430 326q204 0 311 -89.5t107 -254.5v-508q0 -68 14 -201h-174v135h-4q-34 -60 -95.5 -98.5t-122 -52t-126.5 -13.5q-175 0 -273 88t-98 217z M270 285q0 -79 64 -131t170 -52q54 0 107.5 15.5t100.5 45.5t76 80.5t29 114.5v127l-270 -12q-138 -6 -207.5 -49t-69.5 -139zM438 1225l180 291h222l-267 -291h-135z" />
<glyph unicode="&#xe2;" d="M98 276q0 147 89.5 225.5t293.5 88.5q232 12 336 16v78q0 110 -58.5 174t-201.5 64q-132 0 -193 -50t-77 -145h-158q47 326 430 326q204 0 311 -89.5t107 -254.5v-508q0 -68 14 -201h-174v135h-4q-34 -60 -95.5 -98.5t-122 -52t-126.5 -13.5q-175 0 -273 88t-98 217z M270 285q0 -79 64 -131t170 -52q54 0 107.5 15.5t100.5 45.5t76 80.5t29 114.5v127l-270 -12q-138 -6 -207.5 -49t-69.5 -139zM270 1225l203 291h189l206 -291h-166l-135 190l-135 -190h-162z" />
<glyph unicode="&#xe3;" d="M98 276q0 147 89.5 225.5t293.5 88.5q232 12 336 16v78q0 110 -58.5 174t-201.5 64q-132 0 -193 -50t-77 -145h-158q47 326 430 326q204 0 311 -89.5t107 -254.5v-508q0 -68 14 -201h-174v135h-4q-34 -60 -95.5 -98.5t-122 -52t-126.5 -13.5q-175 0 -273 88t-98 217z M221 1241q13 106 65.5 165.5t147.5 59.5q65 0 158 -34q12 -5 34 -14t35.5 -14.5t30.5 -10t31 -4.5q44 0 66 29.5t24 64.5h105q-13 -106 -65.5 -166t-147.5 -60q-63 0 -158 35q-12 5 -34 14t-35.5 14.5t-30.5 10t-31 4.5q-44 0 -66 -29.5t-24 -64.5h-105zM270 285 q0 -79 64 -131t170 -52q54 0 107.5 15.5t100.5 45.5t76 80.5t29 114.5v127l-270 -12q-138 -6 -207.5 -49t-69.5 -139z" />
<glyph unicode="&#xe4;" d="M98 276q0 147 89.5 225.5t293.5 88.5q232 12 336 16v78q0 110 -58.5 174t-201.5 64q-132 0 -193 -50t-77 -145h-158q47 326 430 326q204 0 311 -89.5t107 -254.5v-508q0 -68 14 -201h-174v135h-4q-34 -60 -95.5 -98.5t-122 -52t-126.5 -13.5q-175 0 -273 88t-98 217z M244 1352q0 47 33.5 80.5t80.5 33.5t81 -33.5t34 -80.5t-34 -81t-81 -34t-80.5 34t-33.5 81zM270 285q0 -79 64 -131t170 -52q54 0 107.5 15.5t100.5 45.5t76 80.5t29 114.5v127l-270 -12q-138 -6 -207.5 -49t-69.5 -139zM666 1352q0 47 33.5 80.5t80.5 33.5t81 -33.5 t34 -80.5t-34 -81t-81 -34t-80.5 34t-33.5 81z" />
<glyph unicode="&#xe5;" d="M98 276q0 147 89.5 225.5t293.5 88.5q232 12 336 16v78q0 110 -58.5 174t-201.5 64q-132 0 -193 -50t-77 -145h-158q47 326 430 326q204 0 311 -89.5t107 -254.5v-508q0 -68 14 -201h-174v135h-4q-34 -60 -95.5 -98.5t-122 -52t-126.5 -13.5q-175 0 -273 88t-98 217z M270 285q0 -79 64 -131t170 -52q54 0 107.5 15.5t100.5 45.5t76 80.5t29 114.5v127l-270 -12q-138 -6 -207.5 -49t-69.5 -139zM360 1401q0 86 61.5 147.5t147.5 61.5t147.5 -61.5t61.5 -147.5t-61.5 -147.5t-147.5 -61.5t-147.5 61.5t-61.5 147.5zM442 1401q0 -53 37 -90 t90 -37t90 37t37 90t-37 90t-90 37t-90 -37t-37 -90z" />
<glyph unicode="&#xe6;" horiz-adv-x="1820" d="M98 268q0 140 89.5 226.5t258.5 99.5q113 8 347 12v35q0 127 -58.5 197.5t-195.5 70.5q-110 0 -169.5 -45.5t-78.5 -138.5l-160 4q11 66 39.5 122t77 102.5t124.5 73t173 26.5q266 0 342 -199q23 38 54.5 70.5t77.5 63t112.5 48t144.5 17.5q91 0 168.5 -30.5t141 -92.5 t100 -168.5t36.5 -245.5v-41h-770q0 -55 7.5 -102.5t28 -96.5t53.5 -83.5t87.5 -56t126.5 -21.5q126 0 193.5 59t99.5 170l166 -18q-23 -71 -61.5 -132.5t-93.5 -112.5t-131 -80.5t-164 -29.5q-83 0 -145.5 14t-110 44t-81.5 66.5t-71 92.5q-124 -217 -397 -217 q-101 0 -175 27.5t-112.5 73.5t-56 94.5t-17.5 101.5zM270 283q0 -83 56 -125.5t155 -42.5q312 0 312 321v39q-157 0 -308 -14q-101 -9 -158 -53.5t-57 -124.5zM954 606h596q-10 141 -87 222t-199 81q-73 0 -130 -26t-92.5 -72t-56 -95.5t-31.5 -109.5z" />
<glyph unicode="&#xe7;" d="M98 508q0 124 43 228.5t115.5 173t167 106t197.5 37.5q176 0 298 -89.5t152 -265.5l-164 -16q-11 32 -20.5 54.5t-32.5 58t-50.5 58t-73 39.5t-101.5 17q-155 0 -257 -110.5t-102 -292.5q0 -78 21 -147t62 -124.5t110 -87.5t158 -32q215 0 286 237l170 -20 q-20 -67 -51 -124t-79 -109.5t-119.5 -85.5t-159.5 -40l-74 -100h4q27 10 78 10q65 0 109 -44t44 -105q0 -95 -74.5 -144t-174.5 -49q-23 0 -46 3t-46 9.5t-36 10.5t-35.5 12.5t-25.5 9.5l33 88q64 -39 133 -39q50 0 81.5 19t31.5 61q0 86 -90 86q-47 0 -84 -22l-35 43 l110 151q-113 8 -204 55t-149 120.5t-89 165.5t-31 194z" />
<glyph unicode="&#xe8;" d="M98 473q0 260 133 420t357 160q223 0 356 -138.5t133 -394.5v-45h-807q0 -171 91 -265.5t227 -94.5q216 0 299 198l164 -24q-144 -318 -471 -318q-213 0 -347.5 143t-134.5 359zM274 606h631q-18 143 -98 223t-215 80q-75 0 -135.5 -27.5t-98 -72.5t-58.5 -96.5 t-26 -106.5zM299 1516h221l180 -291h-135z" />
<glyph unicode="&#xe9;" d="M98 473q0 260 133 420t357 160q223 0 356 -138.5t133 -394.5v-45h-807q0 -171 91 -265.5t227 -94.5q216 0 299 198l164 -24q-144 -318 -471 -318q-213 0 -347.5 143t-134.5 359zM274 606h631q-18 143 -98 223t-215 80q-75 0 -135.5 -27.5t-98 -72.5t-58.5 -96.5 t-26 -106.5zM438 1225l180 291h222l-267 -291h-135z" />
<glyph unicode="&#xea;" d="M98 473q0 260 133 420t357 160q223 0 356 -138.5t133 -394.5v-45h-807q0 -171 91 -265.5t227 -94.5q216 0 299 198l164 -24q-144 -318 -471 -318q-213 0 -347.5 143t-134.5 359zM270 1225l203 291h189l206 -291h-166l-135 190l-135 -190h-162zM274 606h631 q-18 143 -98 223t-215 80q-75 0 -135.5 -27.5t-98 -72.5t-58.5 -96.5t-26 -106.5z" />
<glyph unicode="&#xeb;" d="M98 473q0 260 133 420t357 160q223 0 356 -138.5t133 -394.5v-45h-807q0 -171 91 -265.5t227 -94.5q216 0 299 198l164 -24q-144 -318 -471 -318q-213 0 -347.5 143t-134.5 359zM244 1352q0 47 33.5 80.5t80.5 33.5t81 -33.5t34 -80.5t-34 -81t-81 -34t-80.5 34t-33.5 81 zM274 606h631q-18 143 -98 223t-215 80q-75 0 -135.5 -27.5t-98 -72.5t-58.5 -96.5t-26 -106.5zM666 1352q0 47 33.5 80.5t80.5 33.5t81 -33.5t34 -80.5t-34 -81t-81 -34t-80.5 34t-33.5 81z" />
<glyph unicode="&#xec;" horiz-adv-x="454" d="M-43 1516h221l180 -291h-135zM147 0v1024h160v-1024h-160z" />
<glyph unicode="&#xed;" horiz-adv-x="454" d="M96 1225l180 291h222l-267 -291h-135zM147 0v1024h160v-1024h-160z" />
<glyph unicode="&#xee;" horiz-adv-x="454" d="M-72 1225l203 291h188l207 -291h-166l-135 190l-135 -190h-162zM147 0v1024h160v-1024h-160z" />
<glyph unicode="&#xef;" horiz-adv-x="454" d="M-98 1352q0 47 33.5 80.5t80.5 33.5t81 -33.5t34 -80.5t-34 -81t-81 -34t-80.5 34t-33.5 81zM147 0v1024h160v-1024h-160zM324 1352q0 47 33.5 80.5t80.5 33.5t81 -33.5t34 -80.5t-34 -81t-81 -34t-80.5 34t-33.5 81z" />
<glyph unicode="&#xf0;" horiz-adv-x="1253" d="M98 512q0 82 21.5 160.5t66 147.5t106.5 121t148.5 82t186.5 30q199 0 325 -160h4q-119 268 -290 422l-236 -127l-78 69l230 125q-99 74 -234 134l113 90q134 -58 256 -150l233 129l78 -74l-229 -125q173 -155 264.5 -368t91.5 -469q0 -119 -32 -221.5t-94.5 -183 t-165.5 -127t-236 -46.5q-108 0 -197 30.5t-149.5 81.5t-102.5 121t-61 147t-19 161zM270 512q0 -176 97 -286.5t260 -110.5t259.5 110.5t96.5 286.5t-96.5 286.5t-259.5 110.5t-260 -110.5t-97 -286.5z" />
<glyph unicode="&#xf1;" d="M154 0v1024h159v-174h4q102 190 326 190q41 0 83 -8.5t90 -32.5t84.5 -61.5t60.5 -102t24 -147.5v-688h-160v618q0 77 -18.5 133t-51.5 87t-71 45t-84 14q-119 0 -203 -87.5t-84 -240.5v-569h-159zM221 1241q13 106 65.5 165.5t147.5 59.5q65 0 158 -34q12 -5 34 -14 t35.5 -14.5t30.5 -10t31 -4.5q44 0 66 29.5t24 64.5h105q-13 -106 -65.5 -166t-147.5 -60q-63 0 -158 35q-12 5 -34 14t-35.5 14.5t-30.5 10t-31 4.5q-44 0 -66 -29.5t-24 -64.5h-105z" />
<glyph unicode="&#xf2;" horiz-adv-x="1253" d="M98 512q0 82 21.5 160.5t66 147.5t106.5 121t148.5 82t186.5 30q108 0 197 -30.5t149.5 -81.5t102 -121t60.5 -147t19 -161q0 -104 -35 -200t-99.5 -172.5t-166.5 -122.5t-227 -46q-108 0 -197 30.5t-149.5 81.5t-102.5 121t-61 147t-19 161zM270 512q0 -176 97 -286.5 t260 -110.5t259.5 110.5t96.5 286.5t-96.5 286.5t-259.5 110.5t-260 -110.5t-97 -286.5zM356 1516h222l180 -291h-135z" />
<glyph unicode="&#xf3;" horiz-adv-x="1253" d="M98 512q0 82 21.5 160.5t66 147.5t106.5 121t148.5 82t186.5 30q108 0 197 -30.5t149.5 -81.5t102 -121t60.5 -147t19 -161q0 -104 -35 -200t-99.5 -172.5t-166.5 -122.5t-227 -46q-108 0 -197 30.5t-149.5 81.5t-102.5 121t-61 147t-19 161zM270 512q0 -176 97 -286.5 t260 -110.5t259.5 110.5t96.5 286.5t-96.5 286.5t-259.5 110.5t-260 -110.5t-97 -286.5zM496 1225l180 291h221l-266 -291h-135z" />
<glyph unicode="&#xf4;" horiz-adv-x="1253" d="M98 512q0 82 21.5 160.5t66 147.5t106.5 121t148.5 82t186.5 30q108 0 197 -30.5t149.5 -81.5t102 -121t60.5 -147t19 -161q0 -104 -35 -200t-99.5 -172.5t-166.5 -122.5t-227 -46q-108 0 -197 30.5t-149.5 81.5t-102.5 121t-61 147t-19 161zM270 512q0 -176 97 -286.5 t260 -110.5t259.5 110.5t96.5 286.5t-96.5 286.5t-259.5 110.5t-260 -110.5t-97 -286.5zM328 1225l202 291h189l207 -291h-166l-135 190l-136 -190h-161z" />
<glyph unicode="&#xf5;" horiz-adv-x="1253" d="M98 512q0 82 21.5 160.5t66 147.5t106.5 121t148.5 82t186.5 30q108 0 197 -30.5t149.5 -81.5t102 -121t60.5 -147t19 -161q0 -104 -35 -200t-99.5 -172.5t-166.5 -122.5t-227 -46q-108 0 -197 30.5t-149.5 81.5t-102.5 121t-61 147t-19 161zM270 512q0 -176 97 -286.5 t260 -110.5t259.5 110.5t96.5 286.5t-96.5 286.5t-259.5 110.5t-260 -110.5t-97 -286.5zM279 1241q13 106 65.5 165.5t147.5 59.5q64 0 157 -34q12 -5 34 -14t35.5 -14.5t30.5 -10t31 -4.5q44 0 66 29.5t24 64.5h105q-13 -106 -65.5 -166t-147.5 -60q-63 0 -158 35 q-12 5 -34 14t-35.5 14.5t-30.5 10t-31 4.5q-44 0 -66 -29.5t-24 -64.5h-104z" />
<glyph unicode="&#xf6;" horiz-adv-x="1253" d="M98 512q0 82 21.5 160.5t66 147.5t106.5 121t148.5 82t186.5 30q108 0 197 -30.5t149.5 -81.5t102 -121t60.5 -147t19 -161q0 -104 -35 -200t-99.5 -172.5t-166.5 -122.5t-227 -46q-108 0 -197 30.5t-149.5 81.5t-102.5 121t-61 147t-19 161zM270 512q0 -176 97 -286.5 t260 -110.5t259.5 110.5t96.5 286.5t-96.5 286.5t-259.5 110.5t-260 -110.5t-97 -286.5zM301 1352q0 47 34 80.5t81 33.5t80.5 -33.5t33.5 -80.5t-33.5 -81t-80.5 -34t-81 34t-34 81zM723 1352q0 47 34 80.5t81 33.5t80.5 -33.5t33.5 -80.5t-33.5 -81t-80.5 -34t-81 34 t-34 81z" />
<glyph unicode="&#xf7;" horiz-adv-x="1228" d="M96 459v119h1037v-119h-1037zM494 96q0 51 34.5 86t85.5 35t86 -35t35 -86t-35 -86t-86 -35t-85.5 35t-34.5 86zM494 940q0 51 34.5 86t85.5 35t86 -35t35 -86t-35 -86t-86 -35t-85.5 35t-34.5 86z" />
<glyph unicode="&#xf8;" horiz-adv-x="1253" d="M61 37l140 133q-103 144 -103 342q0 82 21.5 160.5t66 147.5t106.5 121t148.5 82t186.5 30q227 0 364 -127l133 127l68 -66l-139 -133q102 -140 102 -342q0 -104 -35 -200t-99.5 -172.5t-166.5 -122.5t-227 -46q-231 0 -363 129l-135 -129zM270 512q0 -131 54 -225 l548 524q-92 98 -245 98q-163 0 -260 -110.5t-97 -286.5zM381 211q96 -96 246 -96q163 0 259.5 110.5t96.5 286.5q0 135 -55 223z" />
<glyph unicode="&#xf9;" d="M154 350v674h159v-631q0 -77 18.5 -133t51.5 -86.5t71.5 -44.5t84.5 -14q119 0 202.5 87t83.5 240v582h160v-1024h-160v162h-4q-102 -191 -325 -191q-49 0 -93.5 10t-91 36.5t-80.5 67.5t-55.5 109.5t-21.5 155.5zM299 1516h221l180 -291h-135z" />
<glyph unicode="&#xfa;" d="M154 350v674h159v-631q0 -77 18.5 -133t51.5 -86.5t71.5 -44.5t84.5 -14q119 0 202.5 87t83.5 240v582h160v-1024h-160v162h-4q-102 -191 -325 -191q-49 0 -93.5 10t-91 36.5t-80.5 67.5t-55.5 109.5t-21.5 155.5zM438 1225l180 291h222l-267 -291h-135z" />
<glyph unicode="&#xfb;" d="M154 350v674h159v-631q0 -77 18.5 -133t51.5 -86.5t71.5 -44.5t84.5 -14q119 0 202.5 87t83.5 240v582h160v-1024h-160v162h-4q-102 -191 -325 -191q-49 0 -93.5 10t-91 36.5t-80.5 67.5t-55.5 109.5t-21.5 155.5zM270 1225l203 291h189l206 -291h-166l-135 190 l-135 -190h-162z" />
<glyph unicode="&#xfc;" d="M154 350v674h159v-631q0 -77 18.5 -133t51.5 -86.5t71.5 -44.5t84.5 -14q119 0 202.5 87t83.5 240v582h160v-1024h-160v162h-4q-102 -191 -325 -191q-49 0 -93.5 10t-91 36.5t-80.5 67.5t-55.5 109.5t-21.5 155.5zM244 1352q0 47 33.5 80.5t80.5 33.5t81 -33.5t34 -80.5 t-34 -81t-81 -34t-80.5 34t-33.5 81zM666 1352q0 47 33.5 80.5t80.5 33.5t81 -33.5t34 -80.5t-34 -81t-81 -34t-80.5 34t-33.5 81z" />
<glyph unicode="&#xfd;" horiz-adv-x="1024" d="M16 1024h183l313 -848h4l315 848h177l-598 -1454h-174l196 450zM381 1225l180 291h221l-266 -291h-135z" />
<glyph unicode="&#xfe;" horiz-adv-x="1251" d="M154 -430v1970h159v-694h4q17 26 32.5 46t48.5 50t69 49.5t92 34t121 14.5q66 0 131 -18t127.5 -59.5t109.5 -101.5t76 -150t29 -199q0 -238 -140 -389.5t-354 -151.5q-124 0 -211 56.5t-131 138.5h-4v-596h-159zM313 504q0 -167 92.5 -278t249.5 -111q104 0 179 54.5 t111 142t36 196.5q0 98 -27 174t-73.5 122t-105 69.5t-126.5 23.5q-65 0 -124.5 -24.5t-107 -71t-76 -123.5t-28.5 -174z" />
<glyph unicode="&#xff;" horiz-adv-x="1024" d="M16 1024h183l313 -848h4l315 848h177l-598 -1454h-174l196 450zM186 1352q0 47 34 80.5t81 33.5t81 -33.5t34 -80.5t-34 -81t-81 -34t-81 34t-34 81zM608 1352q0 47 34 80.5t81 33.5t81 -33.5t34 -80.5t-34 -81t-81 -34t-81 34t-34 81z" />
<glyph unicode="&#x152;" horiz-adv-x="2048" d="M115 770q0 170 38.5 308t102.5 228t149.5 150.5t175.5 86.5t185 26q85 0 158 -19.5t119 -45.5t87 -66t59.5 -66t39.5 -61h4v229h719v-156h-547v-516h539v-155h-539v-557h547v-156h-719v242h-4q-50 -96 -130.5 -159t-162 -87.5t-170.5 -24.5q-134 0 -244 44t-184.5 119 t-125.5 178t-74 217.5t-23 240.5zM299 795q0 -330 124 -499t343 -169q214 0 340.5 180.5t126.5 487.5q0 291 -125 454.5t-344 163.5q-144 0 -250.5 -82t-160.5 -221t-54 -315z" />
<glyph unicode="&#x153;" horiz-adv-x="1933" d="M98 512q0 103 34.5 199.5t97 173t159 122.5t211.5 46q80 0 145 -19t110.5 -54.5t75.5 -73t56 -85.5q68 110 161 171t241 61q91 0 168.5 -30.5t141 -92.5t100 -168.5t36.5 -245.5v-41h-770q0 -55 7.5 -102.5t28 -96.5t53.5 -83.5t87.5 -56t126.5 -21.5q126 0 193.5 59 t99.5 170l166 -18q-23 -71 -61.5 -132.5t-93.5 -112.5t-131.5 -80.5t-164.5 -29.5q-146 0 -240.5 56.5t-160.5 171.5q-63 -111 -156 -169.5t-239 -58.5q-224 0 -353 150t-129 391zM270 512q0 -192 85.5 -294.5t228.5 -102.5q75 0 134 29t93.5 72.5t56.5 101t29.5 107 t7.5 97.5q0 187 -85 287t-226 100q-151 0 -237.5 -110t-86.5 -287zM1067 606h596q-10 141 -87.5 222t-199.5 81q-73 0 -130 -26t-92 -72t-55.5 -95.5t-31.5 -109.5z" />
<glyph unicode="&#x178;" horiz-adv-x="1253" d="M14 1540h211l406 -758l397 758h211l-522 -911v-629h-172v629zM301 1745q0 47 34 81t81 34t80.5 -34t33.5 -81t-33.5 -81t-80.5 -34t-81 34t-34 81zM723 1745q0 47 34 81t81 34t80.5 -34t33.5 -81t-33.5 -81t-80.5 -34t-81 34t-34 81z" />
<glyph unicode="&#x2c6;" horiz-adv-x="454" d="M-72 1225l203 291h188l207 -291h-166l-135 190l-135 -190h-162z" />
<glyph unicode="&#x2dc;" horiz-adv-x="454" d="M-121 1241q13 106 65.5 165.5t147.5 59.5q65 0 158 -34q12 -5 34 -14t35.5 -14.5t30.5 -10t31 -4.5q44 0 66 29.5t24 64.5h104q-13 -106 -65.5 -166t-147.5 -60q-62 0 -157 35q-12 5 -34 14t-35.5 14.5t-30.5 10t-31 4.5q-44 0 -66 -29.5t-24 -64.5h-105z" />
<glyph unicode="&#x2000;" horiz-adv-x="1001" />
<glyph unicode="&#x2001;" horiz-adv-x="2003" />
<glyph unicode="&#x2002;" horiz-adv-x="1001" />
<glyph unicode="&#x2003;" horiz-adv-x="2003" />
<glyph unicode="&#x2004;" horiz-adv-x="667" />
<glyph unicode="&#x2005;" horiz-adv-x="500" />
<glyph unicode="&#x2006;" horiz-adv-x="333" />
<glyph unicode="&#x2007;" horiz-adv-x="333" />
<glyph unicode="&#x2008;" horiz-adv-x="250" />
<glyph unicode="&#x2009;" horiz-adv-x="400" />
<glyph unicode="&#x200a;" horiz-adv-x="111" />
<glyph unicode="&#x2010;" horiz-adv-x="684" d="M90 459v155h504v-155h-504z" />
<glyph unicode="&#x2011;" horiz-adv-x="684" d="M90 459v155h504v-155h-504z" />
<glyph unicode="&#x2012;" horiz-adv-x="684" d="M90 459v155h504v-155h-504z" />
<glyph unicode="&#x2013;" horiz-adv-x="1024" d="M0 465v143h1024v-143h-1024z" />
<glyph unicode="&#x2014;" horiz-adv-x="2048" d="M0 465v143h2048v-143h-2048z" />
<glyph unicode="&#x2018;" horiz-adv-x="569" d="M115 1100l235 469l105 -49l-176 -496z" />
<glyph unicode="&#x2019;" horiz-adv-x="569" d="M115 1073l176 496l164 -76l-236 -469z" />
<glyph unicode="&#x201a;" horiz-adv-x="569" d="M115 -283l176 496l164 -76l-236 -469z" />
<glyph unicode="&#x201c;" d="M197 1100l235 469l105 -49l-177 -496zM602 1100l236 469l104 -49l-176 -496z" />
<glyph unicode="&#x201d;" d="M197 1073l176 496l164 -76l-236 -469zM602 1073l176 496l164 -76l-235 -469z" />
<glyph unicode="&#x201e;" d="M197 -283l176 496l164 -76l-236 -469zM602 -283l176 496l164 -76l-235 -469z" />
<glyph unicode="&#x2022;" horiz-adv-x="1024" d="M127 770q0 160 112.5 272.5t272.5 112.5t272.5 -112.5t112.5 -272.5t-112.5 -272.5t-272.5 -112.5t-272.5 112.5t-112.5 272.5z" />
<glyph unicode="&#x2026;" horiz-adv-x="2048" d="M227 90q0 47 34 81t81 34t81 -34t34 -81t-34 -81t-81 -34t-81 34t-34 81zM909 90q0 47 34 81t81 34t81 -34t34 -81t-34 -81t-81 -34t-81 34t-34 81zM1591 90q0 47 34 81t81 34t81 -34t34 -81t-34 -81t-81 -34t-81 34t-34 81z" />
<glyph unicode="&#x202f;" horiz-adv-x="400" />
<glyph unicode="&#x2039;" horiz-adv-x="569" d="M100 541l226 368h143l-229 -368l223 -377h-144z" />
<glyph unicode="&#x203a;" horiz-adv-x="569" d="M100 164l230 368l-224 377h144l219 -377l-225 -368h-144z" />
<glyph unicode="&#x205f;" horiz-adv-x="500" />
<glyph unicode="&#x20ac;" d="M6 559h154q35 -277 168 -430.5t336 -153.5q102 0 182 30.5t128.5 83t76 112t36.5 127.5l-172 14q-22 -107 -91.5 -165t-151.5 -58q-281 0 -338 440h446l37 119h-495q-3 41 -3 80q0 50 3 102h552l37 119h-577q65 418 323 418q117 0 188 -69t77 -198l172 15 q-3 59 -15 110.5t-42.5 105.5t-77 92t-123.5 62.5t-177 24.5q-197 0 -323.5 -150.5t-169.5 -410.5h-123l-37 -119h146q-5 -82 -5 -102q0 -40 3 -80h-107z" />
<glyph unicode="&#x2122;" horiz-adv-x="2027" d="M25 1434v106h659v-106h-270v-738h-119v738h-270zM819 696v844h195l262 -661l254 661h194v-844h-118v738h-4l-293 -738h-74l-293 738h-4v-738h-119z" />
<glyph unicode="&#x25fc;" horiz-adv-x="1024" d="M0 0v1024h1024v-1024h-1024z" />
</font>
</defs>
</svg>
