<?xml version="1.0" standalone="no"?>
<!DOCTYPE svg PUBLIC "-//W3C//DTD SVG 1.1//EN" "http://www.w3.org/Graphics/SVG/1.1/DTD/svg11.dtd" >
<svg xmlns="http://www.w3.org/2000/svg">
<metadata></metadata>
<defs>
<font id="courier_newbold" horiz-adv-x="1229" >
<font-face units-per-em="2048" ascent="1638" descent="-410" />
<missing-glyph horiz-adv-x="500" />
<glyph />
<glyph />
<glyph unicode="&#xd;" />
<glyph unicode=" " />
<glyph unicode="!" d="M444 1155q0 78 47 125.5t117 47.5q69 0 116.5 -48t47.5 -121q0 -15 -5 -66l-57 -618q-4 -48 -32 -74.5t-70 -26.5t-70 26.5t-32 74.5l-58 618q-4 47 -4 62zM486 75q0 43 32.5 73.5t91.5 30.5t91.5 -30t32.5 -74t-33 -74.5t-91 -30.5t-91 30.5t-33 74.5z" />
<glyph unicode="&#x22;" d="M264 1237h264l-65 -490q-5 -38 -21.5 -53t-42.5 -15q-27 0 -43 15t-21 52zM691 1237h264l-65 -490q-5 -38 -21 -53t-43 -15t-43 15t-21 52z" />
<glyph unicode="#" d="M122 392q0 45 31.5 73.5t105.5 28.5h65l15 224h-37q-74 0 -105.5 28.5t-31.5 74.5q0 45 31.5 73.5t104.5 28.5h53l24 352q4 52 9 65q11 29 37.5 47t58.5 18q42 0 72 -30t30 -80q0 -12 -2 -35l-23 -337h152l24 352q4 72 32.5 101t72.5 29q43 0 73 -30.5t30 -74.5 q0 -10 -1 -17l-3 -23l-23 -337h48q74 0 105.5 -28.5t31.5 -74.5q0 -45 -31 -73.5t-105 -28.5h-64l-15 -224h36q74 0 105.5 -28.5t31.5 -74.5q0 -45 -31 -73.5t-105 -28.5h-52l-24 -352q-1 -8 -15 -71q-10 -24 -36 -41t-55 -17q-41 0 -70.5 30.5t-29.5 76.5q0 8 2 38l24 336 h-153l-24 -351q-4 -53 -8 -63q-11 -30 -37.5 -48.5t-58.5 -18.5q-44 0 -73.5 30t-29.5 77q0 11 2 37l23 337h-50q-74 0 -105.5 28.5t-31.5 74.5zM530 494h152l15 224h-152z" />
<glyph unicode="$" d="M166 208v129q0 74 28.5 105.5t74.5 31.5q37 0 62 -20t36 -61.5t31 -62.5q30 -32 91.5 -53.5t126.5 -21.5q114 0 190 59q51 39 51 101q0 51 -34 84q-34 32 -143 54l-154 31q-163 32 -239 117t-76 204q0 118 82 210t219 116v56q0 73 28.5 104.5t74.5 31.5q45 0 73.5 -31.5 t28.5 -104.5v-56q71 -9 139 -40q16 9 30.5 13.5t28.5 4.5q46 0 74.5 -31.5t28.5 -105.5v-66q0 -74 -28.5 -105.5t-73.5 -31.5q-41 0 -69.5 27t-33.5 79q-72 57 -180 57q-113 0 -165.5 -40.5t-52.5 -89.5q0 -38 32 -68t134 -51l136 -29q172 -35 247 -105q98 -89 98 -235 q0 -128 -89.5 -227.5t-255.5 -131.5v-174q0 -74 -28.5 -105.5t-74.5 -31.5q-45 0 -73.5 31.5t-28.5 105.5v174q-80 17 -160 53q-43 -36 -80 -36q-49 0 -77.5 31t-28.5 105z" />
<glyph unicode="%" d="M158 503q0 21 14 38q10 13 47 25l756 245q28 9 41 9q24 0 41.5 -19.5t17.5 -46.5q0 -22 -14 -39q-10 -13 -47 -25l-756 -245q-28 -9 -41 -9q-23 0 -41 19t-18 48zM193 995q0 120 85 205t205 85t204.5 -84.5t84.5 -205.5q0 -120 -84.5 -204.5t-204.5 -84.5t-205 84.5 t-85 204.5zM320 995q0 -67 48 -115t115 -48t115 48t48 115q0 68 -48 115.5t-115 47.5q-68 0 -115.5 -47.5t-47.5 -115.5zM452 259q0 120 85 205t205 85t205 -84.5t85 -205.5q0 -120 -85 -204.5t-205 -84.5t-205 85t-85 204zM579 259q0 -67 48 -114.5t115 -47.5t115 47.5 t48 114.5q0 68 -48 115.5t-115 47.5t-115 -47.5t-48 -115.5z" />
<glyph unicode="&#x26;" d="M225 297q0 97 49.5 185.5t151.5 148.5q-44 73 -57.5 113.5t-13.5 86.5q0 124 94 217.5t223 93.5q34 0 70 -8.5t74 -26.5q36 16 54 16q42 0 72 -30.5t30 -72.5q0 -35 -16.5 -57.5t-66.5 -49.5l-86 -46q-49 44 -79 59q-23 11 -53 11q-47 0 -79 -31.5t-32 -72.5 q0 -35 59 -121l209 -305l50 174h105q64 0 88 -15q48 -31 48 -89q0 -42 -25.5 -70.5t-61.5 -30.5q-25 -107 -63 -171q81 0 104 -15q49 -30 49 -88q0 -45 -31.5 -73.5t-105.5 -28.5h-122l-24 32q-45 -32 -86 -44q-61 -18 -148 -18q-181 0 -280.5 92.5t-99.5 234.5zM430 298 q0 -57 39 -90t136 -33q62 0 114 30l-175 254q-114 -53 -114 -161z" />
<glyph unicode="'" d="M481 1252h264l-65 -528q-5 -42 -21.5 -57.5t-43.5 -15.5q-25 0 -41.5 15.5t-21.5 56.5z" />
<glyph unicode="(" d="M541 498q0 175 58 354q43 132 133 294q65 116 96 142.5t69 26.5q44 0 74 -30t30 -72q0 -29 -24 -69q-108 -177 -157.5 -332t-49.5 -314q0 -160 49.5 -315t157.5 -332q24 -39 24 -69q0 -42 -30 -72t-74 -30q-37 0 -65 24q-40 35 -106 157q-95 177 -130 292 q-55 176 -55 345z" />
<glyph unicode=")" d="M242 -218q0 30 24 69q108 177 157.5 332t49.5 315q0 159 -49.5 314t-157.5 332q-24 40 -24 69q0 42 30 72t74 30q37 0 65 -24q40 -34 106 -157q95 -177 130 -291q55 -177 55 -345q0 -175 -58 -355q-43 -132 -133 -293q-65 -116 -96 -143t-69 -27q-44 0 -74 30t-30 72z " />
<glyph unicode="*" d="M166 941q0 42 29.5 72.5t66.5 30.5q24 0 71 -16l177 -57v186q0 74 28.5 105.5t74.5 31.5t74 -31.5t28 -105.5v-186l177 57q48 16 70 16q38 0 67.5 -30t29.5 -72q0 -37 -20.5 -62.5t-82.5 -46.5l-177 -57l109 -151q40 -55 40 -87q0 -43 -30 -73t-72 -30q-31 0 -51.5 13 t-52.5 57l-109 150l-110 -150q-31 -44 -52 -57.5t-51 -13.5q-42 0 -72.5 30.5t-30.5 74.5q0 31 40 86l110 151l-177 57q-63 20 -80 43q-24 29 -24 65z" />
<glyph unicode="+" d="M82 583q0 46 31.5 74.5t105.5 27.5h293v342q0 73 28.5 105t74.5 32t74.5 -31.5t28.5 -105.5l-1 -342h293q74 0 105.5 -28t31.5 -74t-31.5 -74.5t-105.5 -28.5h-293v-343q0 -74 -28 -105.5t-74 -31.5t-74.5 31.5t-28.5 105.5v343h-293q-74 0 -105.5 28.5t-31.5 74.5z" />
<glyph unicode="," d="M417 -274q0 15 7 41l142 509h274l-295 -556q-26 -49 -65 -49q-26 0 -44.5 17t-18.5 38z" />
<glyph unicode="-" d="M188 488v187h856v-187h-856z" />
<glyph unicode="." d="M463 103q0 58 41 97t113 39t113 -39t41 -97t-41 -97t-113 -39t-113 39t-41 97z" />
<glyph unicode="/" d="M169 -138q0 27 24 79l659 1415q25 53 44 69q27 21 63 21q42 0 72 -29.5t30 -67.5q0 -27 -24 -79l-657 -1416q-25 -53 -45 -69q-26 -21 -63 -21q-42 0 -72.5 30t-30.5 68z" />
<glyph unicode="0" d="M168 536v225q0 199 115 382.5t330 183.5q123 0 208.5 -54t163 -200.5t77.5 -311.5v-225q0 -200 -115.5 -383t-330.5 -183q-124 0 -209.5 54.5t-162 201t-76.5 310.5zM373 536q0 -168 94 -292q52 -69 149 -69q92 0 151 76q89 115 89 285v225q0 167 -93 292q-53 69 -149 69 q-93 0 -152 -76q-89 -115 -89 -285v-225z" />
<glyph unicode="1" d="M169 1107q0 41 21 64.5t88 41.5l441 114v-1122h207q74 0 105.5 -28.5t31.5 -74.5q0 -45 -31.5 -73.5t-105.5 -28.5h-619q-74 0 -105.5 28.5t-31.5 74.5q0 45 31.5 73.5t105.5 28.5h207v855l-183 -48q-44 -12 -66 -12q-39 0 -67.5 31t-28.5 76z" />
<glyph unicode="2" d="M110 0v217q554 457 669 588q58 67 58 127q0 75 -65.5 132.5t-174.5 57.5q-110 0 -183 -64q-38 -34 -61 -101q-14 -42 -38.5 -60t-60.5 -18q-42 0 -72.5 30t-30.5 70q0 60 55.5 150t162 144t231.5 54q194 0 318 -117.5t124 -284.5q0 -85 -35.5 -157.5t-170.5 -200.5 q-106 -101 -413 -362h449q37 30 70 30q47 0 74.5 -31t27.5 -106v-98h-934z" />
<glyph unicode="3" d="M135 144q0 44 29.5 74.5t71.5 30.5q29 0 60 -20q44 -30 83 -40q60 -14 165 -14q179 0 259 46.5t80 131.5q0 63 -46.5 121.5t-124.5 90.5q-45 18 -152 25q-51 3 -78.5 31.5t-27.5 70.5q0 44 30 74t76 30q102 0 109 1q40 4 80 26t64.5 60.5t24.5 79.5q0 65 -57.5 112.5 t-172.5 47.5q-148 0 -226 -86q-23 -25 -37 -32q-21 -11 -47 -11q-42 0 -72 30t-30 74q0 69 92 134q134 95 335 95q190 0 305 -108t115 -260q0 -79 -34 -147.5t-102 -126.5q91 -62 136 -143.5t45 -182.5q0 -109 -59.5 -201.5t-172.5 -140t-296 -47.5q-238 0 -358 74 q-67 42 -67 100z" />
<glyph unicode="4" d="M153 287v171l491 836h271v-802q65 0 96 -28.5t31 -73.5t-31.5 -74t-95.5 -29v-82q65 0 96 -29t31 -74t-31.5 -73.5t-105.5 -28.5h-275q-74 0 -105.5 28.5t-31.5 74.5q0 45 31.5 73.5t105.5 28.5h80v82h-557zM413 492h297v504z" />
<glyph unicode="5" d="M132 172q0 41 30.5 71.5t72.5 30.5q35 0 76 -33.5t86 -46.5q64 -19 164 -19q186 0 254 59.5t68 182.5q0 121 -65.5 190t-168.5 69q-111 0 -253 -72q-32 -17 -56 -17q-44 0 -73.5 32t-29.5 83v592h627q74 0 105.5 -28.5t31.5 -74.5q0 -45 -31.5 -73.5t-105.5 -28.5h-422 v-244q114 36 207 36q189 0 314 -129t125 -333q0 -210 -126.5 -329.5t-387.5 -119.5q-230 0 -364 87q-78 50 -78 115z" />
<glyph unicode="6" d="M216 624q0 230 105 382.5t247 236.5t300 84q125 0 194 -49q45 -33 45 -84q0 -45 -30 -75.5t-72 -30.5q-24 0 -69 24q-27 14 -52 14q-98 0 -203 -55.5t-182 -170.5q-53 -80 -77 -200q74 62 141 90.5t143 28.5q161 0 282 -128t121 -321q0 -179 -112.5 -289.5t-305.5 -110.5 q-161 0 -265 75t-157 231t-53 348zM452 383q32 -120 86.5 -164t155.5 -44t155.5 53t54.5 144q0 104 -62.5 173t-140.5 69q-62 0 -132.5 -61t-116.5 -170z" />
<glyph unicode="7" d="M152 1112v182h890v-205l-332 -988q-21 -62 -46.5 -82.5t-61.5 -20.5q-43 0 -73.5 30t-30.5 69q0 22 16 70l312 922h-469q-4 -60 -31 -86.5t-71 -26.5q-46 0 -74.5 31t-28.5 105z" />
<glyph unicode="8" d="M169 346q0 93 39.5 170.5t118.5 138.5q-69 64 -104 136t-35 152q0 157 120 270.5t308 113.5t308 -113.5t120 -270.5q0 -81 -34.5 -153t-104.5 -135q79 -61 118.5 -138.5t39.5 -170.5q0 -103 -50.5 -189.5t-158.5 -136.5t-240 -50t-238 50t-156.5 137t-50.5 189zM374 334 q0 -64 60 -111.5t182 -47.5q123 0 182.5 47.5t59.5 113.5q0 81 -69.5 146.5t-172.5 65.5t-172.5 -65.5t-69.5 -148.5zM393 939q0 -77 59.5 -130.5t161.5 -53.5q101 0 160.5 53.5t59.5 130.5q0 76 -59.5 129.5t-160.5 53.5q-102 0 -161.5 -53.5t-59.5 -129.5z" />
<glyph unicode="9" d="M215 877q0 153 85 278q116 172 327 172q151 0 264 -90.5t166 -261t53 -355.5q0 -314 -243 -504q-188 -146 -412 -146q-124 0 -192 50q-46 33 -46 87q0 44 29.5 73.5t72.5 29.5q24 0 54 -15q39 -20 82 -20q155 0 286 105.5t162 257.5q-77 -66 -141 -93.5t-135 -27.5 q-165 0 -288.5 132t-123.5 328zM420 879q0 -115 61.5 -186t140.5 -71q139 0 252 239q-33 142 -97.5 201.5t-147.5 59.5q-87 0 -148 -66.5t-61 -176.5z" />
<glyph unicode=":" d="M461 771q0 58 41 97t113 39t113 -39t41 -97t-41 -97t-113 -39t-113 39t-41 97zM463 100q0 58 41 97t113 39t113 -39t41 -97t-41 -97t-113 -39t-113 39t-41 97z" />
<glyph unicode=";" d="M404 -170q0 13 7 35l136 434h261l-289 -469q-28 -47 -55 -47q-25 0 -42.5 15t-17.5 32zM557 767q0 57 40.5 96.5t112.5 39.5t113 -39t41 -98q0 -58 -41 -97t-113 -39q-71 0 -112 39.5t-41 97.5z" />
<glyph unicode="&#x3c;" d="M-26 584l989 550q54 29 80 29q42 0 73 -31t31 -74q0 -34 -16.5 -56t-66.5 -50l-664 -368l664 -368q50 -28 66.5 -50t16.5 -56q0 -43 -31 -74.5t-72 -31.5q-27 0 -81 30z" />
<glyph unicode="=" d="M41 390q0 46 31.5 74.5t105.5 28.5h876q74 0 105.5 -28.5t31.5 -74.5t-31.5 -74t-105.5 -28h-876q-74 0 -105.5 28t-31.5 74zM41 777q0 45 31.5 73.5t105.5 28.5h876q74 0 105.5 -28.5t31.5 -74.5q0 -45 -31.5 -73.5t-105.5 -28.5h-876q-74 0 -105.5 28.5t-31.5 74.5z " />
<glyph unicode="&#x3e;" d="M84 110q0 34 16.5 56t66.5 50l664 368l-664 368q-50 28 -66.5 50t-16.5 56q0 43 31 74t73 31q26 0 80 -29l989 -550l-989 -550q-54 -30 -80 -30q-42 0 -73 31t-31 75z" />
<glyph unicode="?" d="M210 956v165q157 74 244 98t180 24q194 0 311 -112t117 -281q0 -120 -70.5 -204t-272.5 -173q-6 -58 -33.5 -84.5t-69.5 -26.5q-45 0 -73.5 31.5t-28.5 105.5v115q243 93 293 143t50 102q0 73 -58.5 126t-165.5 53q-113 0 -218 -52v-30q0 -73 -28.5 -104.5t-74.5 -31.5 q-45 0 -73.5 31t-28.5 105zM472 77q0 47 33 76.5t112 29.5q78 0 111.5 -29.5t33.5 -76.5t-33.5 -76.5t-111.5 -29.5t-111.5 29.5t-33.5 76.5z" />
<glyph unicode="@" d="M180 422v329q0 240 119 408t317 168q89 0 168 -37t135 -129t56 -204v-547q44 -20 44 -67q0 -35 -24 -56.5t-81 -21.5h-90v6q-47 -7 -69 -7q-120 0 -209.5 89t-89.5 209q0 128 98.5 224.5t269.5 107.5v63q0 99 -57.5 159t-147.5 60q-72 0 -135.5 -47.5t-95.5 -122.5 q-57 -133 -57 -266v-304q0 -231 104 -367q68 -89 190 -89q65 0 119.5 17t84.5 47t55 30q33 0 55 -22.5t22 -55.5q0 -50 -69 -98q-100 -68 -273 -68q-132 0 -218 60q-111 78 -166 230t-55 302zM606 560q0 -57 46.5 -99t122.5 -42q15 0 49 3v317q-106 -10 -162 -61.5 t-56 -117.5z" />
<glyph unicode="A" d="M-46 103q0 46 33 75q31 27 99 27h10l322 802h-134q-74 0 -105.5 28.5t-31.5 74.5t31.5 74.5t105.5 28.5l443 -1l408 -1007q72 0 95 -16q46 -33 46 -87q0 -45 -31 -73.5t-105 -28.5h-276q-74 0 -105.5 28.5t-31.5 74.5q0 45 31.5 73.5t105.5 28.5h50l-49 125h-498 l-50 -125h50q74 0 105.5 -28.5t31.5 -74.5q0 -45 -31.5 -73.5t-105.5 -28.5h-276q-74 0 -105.5 28.5t-31.5 74.5zM449 535h331l-165 406z" />
<glyph unicode="B" d="M27 103q0 45 32 73.5t105 28.5h32v802h-32q-74 0 -105.5 28.5t-31.5 74.5t31.5 74.5t105.5 28.5h514q184 0 296 -102.5t112 -243.5q0 -67 -26 -126t-79 -109q97 -58 145.5 -135.5t48.5 -175.5q0 -78 -35 -145q-26 -51 -64 -81q-51 -42 -125 -68.5t-185 -26.5h-602 q-74 0 -105.5 28.5t-31.5 74.5zM401 205h354q125 0 176 37q39 28 39 80q0 62 -77 122t-221 60h-271v-299zM401 709h225q121 0 201 61q54 41 54 102q0 54 -51 94.5t-162 40.5h-267v-298z" />
<glyph unicode="C" d="M64 517v139q0 160 74.5 298.5t206.5 213.5t280 75q89 0 166.5 -20.5t144.5 -62.5q19 26 41.5 39t48.5 13q45 0 73.5 -31t28.5 -105v-174q0 -74 -28.5 -105.5t-73.5 -31.5q-41 0 -66 23t-37 86q-7 42 -28 65q-41 45 -114.5 72t-147.5 27q-92 0 -169 -40t-136 -130 t-59 -214v-133q0 -148 107.5 -247t298.5 -99q114 0 193 31q46 18 98 71q32 32 50 41.5t41 9.5q41 0 72 -31t31 -73t-42 -90q-61 -70 -157 -110q-129 -54 -285 -54q-182 0 -328 75q-118 60 -201 189.5t-83 282.5z" />
<glyph unicode="D" d="M29 103q-1 45 31 74q30 28 92 28h4v802q-65 1 -96 29.5t-31 73.5q0 46 31.5 74.5t105.5 28.5l429 -1q100 0 195.5 -37t153.5 -94q44 -43 91.5 -118t71.5 -149t24 -181v-98q0 -130 -44 -230.5t-115.5 -164t-134.5 -93.5q-100 -47 -259 -47h-412q-74 0 -105.5 28.5 t-31.5 74.5zM361 205h218q122 0 184 35q81 46 122 117t41 184v97q0 97 -37 170q-58 114 -130.5 156.5t-181.5 42.5h-216v-802z" />
<glyph unicode="E" d="M30 103q0 45 32 73.5t105 28.5h32v802h-32q-74 0 -105.5 28.5t-31.5 74.5t31.5 74.5t105.5 28.5l920 -1v-312q0 -73 -28 -104.5t-74 -31.5t-74.5 31t-28.5 105v107h-478v-296h180q0 80 15 103q31 49 88 49q45 0 73.5 -31.5t28.5 -105.5v-236q0 -67 -16 -90 q-32 -47 -86 -47q-57 0 -88 49q-15 23 -15 104h-180v-301h523v111q0 74 28.5 105.5t74.5 31.5q45 0 73.5 -31.5t28.5 -105.5v-316h-965q-74 0 -105.5 28.5t-31.5 74.5z" />
<glyph unicode="F" d="M100 103q0 45 32 73.5t105 28.5h32v802h-32q-74 0 -105.5 28.5t-31.5 74.5t31.5 74.5t105.5 28.5l965 -1v-313q0 -73 -28.5 -104.5t-74.5 -31.5q-45 0 -73.5 31t-28.5 105v108h-523v-297h180q0 80 15 103q31 49 88 49q45 0 73.5 -31.5t28.5 -105.5v-236 q0 -74 -28.5 -105.5t-74.5 -31.5q-56 0 -87 49q-15 23 -15 104h-180v-300h210q74 0 105.5 -28.5t31.5 -74.5q0 -45 -31.5 -73.5t-105.5 -28.5h-447q-74 0 -105.5 28.5t-31.5 74.5z" />
<glyph unicode="G" d="M65 511v148q0 205 125 366q168 218 457 218q84 0 159.5 -17t143.5 -51q41 37 80 37q45 0 73 -31t28 -105v-133q0 -74 -28.5 -105.5t-73.5 -31.5q-36 0 -62 22q-20 15 -33.5 66.5t-30.5 69.5q-27 29 -95.5 51.5t-153.5 22.5q-122 0 -212 -50q-64 -37 -118 -129t-54 -200 v-148q0 -165 95.5 -250.5t303.5 -85.5q141 0 257 53v147h-209q-74 0 -105.5 28.5t-31.5 74.5t31.5 74.5t105.5 28.5l364 -1q74 0 105.5 -28t31.5 -74q0 -36 -21.5 -63t-65.5 -40v-275q-139 -75 -236.5 -102.5t-210.5 -27.5q-157 0 -291 47q-105 36 -165.5 91t-111.5 162.5 t-51 240.5z" />
<glyph unicode="H" d="M45 103q0 56 49 87q23 15 93 15h9v802q-54 5 -81.5 33t-27.5 70q0 46 31.5 74.5t105.5 28.5l209 -1q74 0 105.5 -28t31.5 -74t-31.5 -74.5t-105.5 -28.5h-32v-300h438v300h-32q-74 0 -105.5 28.5t-31.5 74.5t31.5 74.5t105.5 28.5l209 -1q74 0 105.5 -28t31.5 -74 q0 -42 -27.5 -70t-81.5 -33v-802q79 0 102 -15q49 -31 49 -88q0 -45 -31.5 -73.5t-105.5 -28.5h-251q-74 0 -105.5 28.5t-31.5 74.5q0 45 32 73.5t105 28.5h32v297h-438v-297h32q74 0 105.5 -28.5t31.5 -74.5q0 -45 -31.5 -73.5t-105.5 -28.5h-251q-74 0 -105.5 28.5 t-31.5 74.5z" />
<glyph unicode="I" d="M168 103q0 45 31.5 73.5t105.5 28.5h207v802h-207q-74 0 -105.5 28.5t-31.5 74.5t31.5 74.5t105.5 28.5l619 -1q74 0 105.5 -28t31.5 -74t-31.5 -74.5t-105.5 -28.5h-207v-802h207q74 0 105.5 -28.5t31.5 -74.5q0 -45 -31.5 -73.5t-105.5 -28.5h-619q-74 0 -105.5 28.5 t-31.5 74.5z" />
<glyph unicode="J" d="M110 106v337q0 74 28.5 105.5t74.5 31.5q45 0 73.5 -31.5t28.5 -105.5v-201q141 -67 241 -67q53 0 110 24.5t86 58.5t38 67q5 18 5 86v596h-249q-74 0 -105.5 28.5t-31.5 74.5t31.5 74.5t105.5 28.5l574 -1q74 0 105.5 -28t31.5 -74t-31.5 -74.5t-105.5 -28.5h-120v-620 q0 -117 -39 -186q-60 -107 -173.5 -169t-238.5 -62q-161 0 -439 136z" />
<glyph unicode="K" d="M27 103q0 45 32 73.5t105 28.5h32v802h-32q-74 0 -105.5 28.5t-31.5 74.5t31.5 74.5t105.5 28.5l311 -1q74 0 105.5 -28t31.5 -74t-31.5 -74.5t-105.5 -28.5h-74v-304l364 313q-32 23 -44 43t-12 49q0 47 31.5 76t105.5 29l209 -1q74 0 105.5 -28t31.5 -74 q0 -45 -31.5 -74t-98.5 -29l-368 -322q103 -59 193.5 -180t160.5 -300h55q73 0 104.5 -28.5t31.5 -74.5q0 -45 -31 -73.5t-105 -28.5h-186q-64 153 -140 292q-62 113 -117.5 164.5t-132.5 82.5l-126 -107v-227h74q74 0 105.5 -28.5t31.5 -74.5q0 -45 -31.5 -73.5 t-105.5 -28.5h-311q-74 0 -105.5 28.5t-31.5 74.5z" />
<glyph unicode="L" d="M68 103q0 45 31.5 73.5t105.5 28.5h119v802h-119q-74 0 -105.5 28.5t-31.5 74.5t31.5 74.5t105.5 28.5l444 -1q74 0 105.5 -28t31.5 -74t-31.5 -74.5t-105.5 -28.5h-120v-802h442v194q0 74 28.5 105.5t74.5 31.5q45 0 73.5 -31.5t28.5 -105.5v-399h-971 q-74 0 -105.5 28.5t-31.5 74.5z" />
<glyph unicode="M" d="M-38 103q0 45 31 73.5t96 28.5v802q-54 5 -81.5 33t-27.5 70q0 46 31.5 74.5t105.5 28.5l225 -1l279 -617l274 618l227 -1q74 0 105.5 -28t31.5 -74q0 -42 -28 -70t-81 -33v-802q65 0 96 -29t31 -74t-31.5 -73.5t-105.5 -28.5h-270q-73 0 -104.5 28.5t-31.5 74.5 q0 45 31.5 73.5t104.5 28.5h75v611l-235 -528h-178l-238 528v-611h74q74 0 105.5 -28.5t31.5 -74.5q0 -45 -31.5 -73.5t-105.5 -28.5h-269q-74 0 -105.5 28.5t-31.5 74.5z" />
<glyph unicode="N" d="M-16 1110q0 46 31.5 74.5t105.5 28.5l237 -1l524 -822v617h-74q-74 0 -105.5 28.5t-31.5 74.5t31.5 74.5t105.5 28.5l269 -1q74 0 105.5 -28t31.5 -74q0 -45 -31 -74t-95 -29v-1007h-203l-527 825v-620h74q74 0 105.5 -28.5t31.5 -74.5q0 -45 -31.5 -73.5t-105.5 -28.5 h-269q-74 0 -105.5 28.5t-31.5 74.5q0 44 31 73t96 29v802h-32q-74 0 -105.5 28.5t-31.5 74.5z" />
<glyph unicode="O" d="M41 606q0 298 204 486q165 151 370 151q228 0 401.5 -181.5t173.5 -455.5q0 -273 -173.5 -454.5t-401.5 -181.5q-205 0 -370 151q-204 187 -204 485zM246 606q0 -186 113 -308.5t256 -122.5q144 0 257 122t113 309t-113 309.5t-257 122.5q-143 0 -256 -123t-113 -309z " />
<glyph unicode="P" d="M122 103q0 45 32 73.5t105 28.5h32v802h-32q-74 0 -105.5 28.5t-31.5 74.5t31.5 74.5t105.5 28.5l472 -1q208 0 329.5 -113.5t121.5 -276.5q0 -90 -41 -170q-31 -60 -103.5 -118.5t-148 -88t-199.5 -29.5h-194v-211h207q74 0 105.5 -28.5t31.5 -74.5q0 -45 -31.5 -73.5 t-105.5 -28.5h-444q-74 0 -105.5 28.5t-31.5 74.5zM496 621h190q134 0 212.5 60.5t78.5 145.5q0 72 -63.5 126t-181.5 54h-236v-386z" />
<glyph unicode="Q" d="M40 606q0 298 205 486q164 151 369 151q206 0 370 -151q205 -188 205 -486q0 -256 -155 -434.5t-372 -199.5l-6 -9q106 0 199 -43q38 -18 63 -18q36 0 88 34t82 34q43 0 72.5 -29.5t29.5 -73.5q0 -53 -55 -92q-109 -78 -219 -78q-56 0 -113 22q-92 36 -146 36 q-87 0 -265 -45q-37 -9 -58 -9q-39 0 -68.5 30.5t-29.5 76.5q0 40 40 79l131 127q-162 70 -264.5 228t-102.5 364zM245 606q0 -186 113 -308.5t256 -122.5q144 0 257 122t113 309t-113 309.5t-257 122.5q-143 0 -256 -123t-113 -309z" />
<glyph unicode="R" d="M29 103q0 45 32 73.5t105 28.5h32v802h-32q-74 0 -105.5 28.5t-31.5 74.5t31.5 74.5t105.5 28.5l464 -1q217 0 336.5 -107.5t119.5 -261.5q0 -96 -56 -174.5t-169 -139.5q65 -57 139 -146q46 -57 124 -178q78 0 103 -16q45 -31 45 -87q0 -45 -31 -73.5t-105 -28.5h-117 q-249 385 -413 463h-203v-258h74q74 0 105.5 -28.5t31.5 -74.5q0 -45 -31.5 -73.5t-105.5 -28.5h-311q-74 0 -105.5 28.5t-31.5 74.5zM403 668h160q89 0 159 27q94 36 126.5 76t32.5 79q0 58 -62 107.5t-181 49.5h-235v-339z" />
<glyph unicode="S" d="M127 138v138q0 74 28.5 105.5t75.5 31.5q36 0 60.5 -19t37.5 -63.5t27 -60.5q29 -31 103 -63t162 -32q137 0 225 64q56 39 56 96q0 38 -27 71.5t-88 55.5q-40 15 -179 41q-168 31 -254 75t-136 124t-50 173q0 147 123 257.5t320 110.5q79 0 146.5 -17.5t122.5 -53.5 q40 39 80 39q45 0 73.5 -31.5t28.5 -104.5v-154q0 -74 -28.5 -105.5t-73.5 -31.5q-38 0 -66 23q-22 17 -33 68t-28 73q-29 38 -87 64t-134 26q-111 0 -175.5 -51.5t-64.5 -107.5q0 -38 26.5 -73.5t77.5 -55.5q34 -14 191.5 -45t242 -68t140.5 -116t56 -188q0 -152 -107 -243 q-142 -120 -362 -120q-85 0 -165.5 20.5t-156.5 61.5q-27 -32 -43.5 -41t-40.5 -9q-47 0 -75.5 31.5t-28.5 104.5z" />
<glyph unicode="T" d="M82 813v400l1062 -1v-399q0 -74 -28.5 -105.5t-74.5 -31.5q-45 0 -73.5 31.5t-28.5 105.5v194h-225v-802h138q74 0 105.5 -28.5t31.5 -74.5q0 -45 -31.5 -73.5t-105.5 -28.5h-480q-74 0 -105.5 28.5t-31.5 74.5q0 45 31.5 73.5t105.5 28.5h137v802h-222v-194 q0 -74 -28.5 -105.5t-74.5 -31.5q-45 0 -73.5 31.5t-28.5 105.5z" />
<glyph unicode="U" d="M22 1110q0 46 31 74t106 28l269 1q74 0 105.5 -28.5t31.5 -74.5t-31.5 -74.5t-105.5 -28.5h-74v-599q0 -92 76.5 -162.5t184.5 -70.5q72 0 135 34t103 99q25 41 25 100v599h-74q-74 0 -105.5 28.5t-31.5 74.5t31.5 74.5t105.5 28.5l269 -1q74 0 105.5 -28t31.5 -74 q0 -45 -31 -74t-96 -29v-581q0 -190 -136.5 -323t-328.5 -133q-95 0 -178.5 33.5t-150 98.5t-103.5 135.5t-37 188.5v581q-65 0 -96 29t-31 74z" />
<glyph unicode="V" d="M-47 1110q0 46 31.5 74.5t105.5 28.5l277 -1q73 0 104.5 -28t31.5 -74t-31 -74.5t-105 -28.5h-48l295 -708l297 708h-47q-74 0 -105.5 28.5t-31.5 74.5t31.5 74.5t105.5 28.5l275 -1q74 0 105.5 -28t31.5 -74q0 -55 -48 -87q-23 -16 -94 -16l-421 -1007h-197l-420 1007 q-72 0 -95 16q-48 31 -48 87z" />
<glyph unicode="W" d="M-22 1107q0 48 31.5 77t105.5 29l273 -1q74 0 105.5 -28t31.5 -74t-31.5 -74.5t-105.5 -28.5h-107l68 -573l161 477h213l160 -477l68 573h-107q-74 0 -105.5 28.5t-31.5 74.5t31.5 74.5t105.5 28.5l272 -1q74 0 105.5 -28t31.5 -74q0 -39 -25 -67t-72 -36l-118 -1007 h-226l-197 582l-190 -582h-230l-122 1007q-47 6 -71 32.5t-24 67.5z" />
<glyph unicode="X" d="M22 103q0 44 31 73t91 29l340 415l-324 387q-60 2 -89.5 30.5t-29.5 72.5q0 46 31.5 74.5t105.5 28.5l189 -1q74 0 105.5 -28t31.5 -74q0 -34 -20 -62q-13 -17 -58 -41l191 -229l187 229q-45 24 -58 41q-20 28 -20 62q0 45 31.5 74t105.5 29l188 -1q74 0 105.5 -28 t31.5 -74q0 -44 -30.5 -73t-88.5 -30l-320 -389l342 -413q61 -1 91.5 -29.5t30.5 -73.5t-31.5 -73.5t-105.5 -28.5h-231q-73 0 -104.5 28.5t-31.5 74.5q0 43 29 71.5t87 30.5l-206 254l-208 -254q57 -2 86 -31t29 -72q0 -45 -31.5 -73.5t-105.5 -28.5h-230 q-74 0 -105.5 28.5t-31.5 74.5z" />
<glyph unicode="Y" d="M43 1110q0 46 31.5 74.5t105.5 28.5l186 -1q74 0 105.5 -28t31.5 -74q0 -69 -81 -103l194 -286l190 286q-45 17 -64 43t-19 60q0 46 31.5 74t105.5 29l193 -1q74 0 105.5 -28t31.5 -74t-32 -74.5t-104 -28.5l-336 -498v-304h138q74 0 105.5 -28.5t31.5 -74.5 q0 -45 -31.5 -73.5t-105.5 -28.5h-481q-73 0 -104.5 28.5t-31.5 74.5q0 45 31.5 73.5t104.5 28.5h138v304l-339 498q-68 0 -99.5 29t-31.5 74z" />
<glyph unicode="Z" d="M151 0v205l625 802h-378v-147q0 -74 -28 -105.5t-74 -31.5t-74.5 31.5t-28.5 105.5v353l848 -1v-200l-628 -807h465v152q0 74 28.5 105.5t74.5 31.5t74.5 -31.5t28.5 -105.5l-1 -357h-932z" />
<glyph unicode="[" d="M510 -320v1614h328q74 0 105.5 -28.5t31.5 -74.5q0 -45 -31.5 -73.5t-105.5 -28.5h-123v-1204h124q74 0 105.5 -28t31.5 -74t-31.5 -74.5t-105.5 -28.5h-329z" />
<glyph unicode="\" d="M170 1348q0 38 30.5 68t71.5 30q37 0 60 -18t48 -72l658 -1410q5 -11 17 -51q6 -23 6 -35q0 -36 -28.5 -63t-70.5 -27q-39 0 -62 18t-48 70l-657 1411q-25 53 -25 79z" />
<glyph unicode="]" d="M253 1191q0 46 31.5 74.5t105.5 28.5h329v-1614h-328q-74 0 -105.5 28.5t-31.5 74.5q0 45 31.5 73.5t105.5 28.5h123v1204h-124q-74 0 -105.5 28.5t-31.5 73.5z" />
<glyph unicode="^" d="M167 782q0 35 45 90l400 483l403 -483q29 -35 37.5 -53t8.5 -38q0 -43 -30.5 -73.5t-72.5 -30.5q-28 0 -48 12t-53 51l-245 291l-241 -290q-33 -40 -53 -52t-47 -12q-43 0 -73.5 30.5t-30.5 74.5z" />
<glyph unicode="_" d="M-81 -513q0 46 31.5 74.5t105.5 28.5h1126q73 0 104.5 -28.5t31.5 -74.5q0 -45 -31 -73.5t-105 -28.5h-1126q-74 0 -105.5 28t-31.5 74z" />
<glyph unicode="`" d="M420 1301q0 28 19.5 47t47.5 19q23 0 57 -27l225 -183q41 -32 41 -64q0 -28 -19.5 -47t-47.5 -19q-23 0 -57 27l-226 183q-40 32 -40 64z" />
<glyph unicode="a" d="M89 247q0 129 131.5 239.5t363.5 110.5q93 0 215 -20v49q0 46 -39.5 75t-150.5 29q-91 0 -236 -36q-54 -13 -84 -13q-41 0 -69.5 29.5t-28.5 75.5q0 26 10 45t28 30t75 28q76 21 155 33.5t143 12.5q191 0 296.5 -82.5t105.5 -225.5v-422h35q74 0 105.5 -28.5t31.5 -74.5 q0 -45 -31.5 -73.5t-105.5 -28.5h-240v48q-77 -41 -170 -61.5t-169 -20.5q-165 0 -268 87.5t-103 193.5zM301 251q0 -29 27 -47q50 -33 137 -33q74 0 167.5 29t166.5 79v88q-123 24 -227 24q-125 0 -215 -61q-56 -39 -56 -79z" />
<glyph unicode="b" d="M-21 103q0 45 32 73.5t105 28.5h35v887h-35q-74 0 -105.5 28.5t-31.5 74.5q0 45 31.5 73.5t105.5 28.5h240v-460q75 49 152.5 73.5t156.5 24.5q213 0 361 -147t148 -355q0 -199 -141 -332.5t-372 -133.5q-82 0 -158 21t-147 62v-50h-240q-74 0 -105.5 28.5t-31.5 74.5z M356 430q0 -113 80 -185.5t226 -72.5t226.5 72.5t80.5 182.5q0 127 -89 215t-218 88q-128 0 -217 -88t-89 -212z" />
<glyph unicode="c" d="M114 429q0 219 146 362.5t381 143.5q85 0 158 -16t135 -48q37 35 76 35q44 0 72.5 -31.5t28.5 -104.5v-132q0 -74 -28.5 -105t-74.5 -31q-42 0 -71 24q-21 18 -33 73.5t-58 82.5q-81 48 -207 48q-145 0 -232.5 -85t-87.5 -215q0 -120 84 -189.5t279 -69.5q128 0 209 26 q48 16 91 54.5t78 38.5q42 0 72.5 -31t30.5 -73q0 -68 -93 -129q-138 -91 -404 -91q-239 0 -372 99q-180 133 -180 364z" />
<glyph unicode="d" d="M62 433q0 208 148 355t361 147q80 0 157 -24.5t152 -73.5v255h-35q-74 0 -105.5 28.5t-31.5 73.5q0 46 31.5 74.5t105.5 28.5h240v-1092h35q73 0 105 -28.5t32 -74.5q0 -45 -31.5 -73.5t-105.5 -28.5h-240v50q-70 -41 -146.5 -62t-158.5 -21q-231 0 -372 133.5 t-141 332.5zM267 430q0 -113 80 -185.5t226 -72.5q145 0 226 72.5t81 182.5q0 127 -89 215t-218 88q-128 0 -217 -88t-89 -212z" />
<glyph unicode="e" d="M66 448q0 216 159.5 351.5t367.5 135.5q125 0 229.5 -44t155.5 -95q72 -74 119 -183q32 -76 32 -176v-87h-841q32 -80 113.5 -129t220.5 -49q114 0 303 49q78 20 108 20q41 0 69 -29t28 -73q0 -40 -30 -68q-40 -37 -195 -70.5t-298 -33.5q-246 0 -393.5 139t-147.5 342z M294 555h608q-47 88 -123 131.5t-181 43.5q-104 0 -180 -43.5t-124 -131.5z" />
<glyph unicode="f" d="M149 103q0 45 31.5 73.5t105.5 28.5h122v498h-98q-74 0 -105.5 28.5t-31.5 74.5q0 45 31.5 73.5t105.5 28.5h98v78q0 134 100.5 222.5t291.5 88.5q85 0 196.5 -15.5t143 -43.5t31.5 -72q0 -47 -28 -76.5t-69 -29.5q-19 0 -57 7q-127 25 -225 25q-102 0 -140.5 -30.5 t-38.5 -75.5v-78h316q74 0 105.5 -28.5t31.5 -74.5q0 -45 -31.5 -73.5t-105.5 -28.5h-316v-498h292q74 0 105.5 -28.5t31.5 -74.5q0 -45 -31.5 -73.5t-105.5 -28.5h-619q-74 0 -105.5 28.5t-31.5 74.5z" />
<glyph unicode="g" d="M66 453q0 206 141 345.5t350 139.5q78 0 148.5 -22.5t134.5 -68.5v61h240q74 0 105.5 -28.5t31.5 -74.5q0 -45 -31.5 -73.5t-105.5 -28.5h-35v-746q0 -108 -45.5 -188.5t-139.5 -138.5t-212 -58h-232q-74 0 -105.5 28.5t-31.5 73.5q0 46 31.5 74.5t105.5 28.5h226 q94 0 146 51t52 129v100q-68 -44 -138.5 -66t-144.5 -22q-209 0 -350 139.5t-141 344.5zM271 454q0 -114 83.5 -196.5t200.5 -82.5t200.5 82.5t83.5 196.5q0 113 -83.5 196t-200.5 83t-200.5 -83t-83.5 -196z" />
<glyph unicode="h" d="M26 1195q0 45 31.5 73.5t105.5 28.5h240v-437q64 38 129.5 56.5t132.5 18.5q106 0 189 -36t137.5 -113.5t54.5 -195.5v-385q78 0 102 -15q48 -31 48 -88q0 -45 -31 -73.5t-105 -28.5h-234q-73 0 -104.5 28.5t-31.5 74.5q0 56 48 87q24 15 93 15h9v371q0 79 -36 111 q-47 43 -139 43q-68 0 -120.5 -26.5t-141.5 -114.5v-384q79 0 102 -15q49 -31 49 -88q0 -45 -31.5 -73.5t-105.5 -28.5h-233q-74 0 -105.5 28.5t-31.5 74.5q0 56 49 87q23 15 93 15h9v887h-35q-74 0 -105.5 28.5t-31.5 74.5z" />
<glyph unicode="i" d="M128 103q0 45 31.5 73.5t105.5 28.5h246v498h-165q-73 0 -105 28.5t-32 74.5q0 45 31.5 73.5t105.5 28.5h370v-703h246q74 0 105.5 -28.5t31.5 -74.5q0 -45 -31.5 -73.5t-105.5 -28.5h-697q-74 0 -105.5 28.5t-31.5 74.5zM444 1080v217h244v-217h-244z" />
<glyph unicode="j" d="M176 -326q0 46 31.5 74.5t105.5 28.5h226q94 0 146 51t52 129v746h-418q-74 0 -105.5 28.5t-31.5 74.5q0 45 31.5 73.5t105.5 28.5h623v-951q0 -108 -45.5 -188.5t-139.5 -138.5t-212 -58h-232q-74 0 -105.5 28.5t-31.5 73.5zM576 1080v217h245v-217h-245z" />
<glyph unicode="k" d="M69 103q0 45 32 73.5t105 28.5h35v887h-35q-74 0 -105.5 28.5t-31.5 74.5q0 45 31.5 73.5t105.5 28.5h240v-691l160 129q-25 43 -25 70q0 46 31 74.5t105 28.5h234q74 0 105.5 -28.5t31.5 -74.5q0 -45 -31.5 -73.5t-105.5 -28.5h-57l-249 -202l335 -296h60 q74 0 105.5 -28.5t31.5 -74.5q0 -45 -31.5 -73.5t-105.5 -28.5h-236q-74 0 -105.5 28.5t-31.5 74.5q0 39 34 77l-217 192l-38 -31v-341h-240q-74 0 -105.5 28.5t-31.5 74.5z" />
<glyph unicode="l" d="M129 103q0 45 31.5 73.5t105.5 28.5h246v887h-165q-73 0 -105 28.5t-32 74.5q0 45 31.5 73.5t105.5 28.5h370v-1092h246q74 0 105.5 -28.5t31.5 -74.5q0 -45 -31.5 -73.5t-105.5 -28.5h-697q-74 0 -105.5 28.5t-31.5 74.5z" />
<glyph unicode="m" d="M-34 103q0 45 31 73.5t96 28.5v498q-65 0 -96 29t-31 74t31.5 73.5t105.5 28.5h195v-58q50 49 90.5 67.5t93.5 18.5q45 0 89 -22t86 -66q53 44 107.5 65.5t111.5 21.5q114 0 185 -61q94 -80 94 -210v-459q64 0 95 -29t31 -74t-31 -73.5t-105 -28.5h-195v647q0 47 -17 65 t-52 18q-34 0 -63 -18q-37 -25 -90 -94v-413q64 0 95 -29t31 -74t-31 -73.5t-105 -28.5h-195v647q0 46 -17.5 64.5t-52.5 18.5q-36 0 -71 -22.5t-84 -89.5v-413q64 0 95.5 -29t31.5 -74t-31.5 -73.5t-105.5 -28.5h-185q-74 0 -105.5 28.5t-31.5 74.5z" />
<glyph unicode="n" d="M51 103q0 56 48 87q24 15 103 15v498q-65 0 -96 29t-31 74t31.5 73.5t105.5 28.5h195v-69q56 48 123.5 72t146.5 24q182 0 288 -113q84 -90 84 -236v-381q65 0 96 -28.5t31 -74.5q0 -45 -31.5 -73.5t-105.5 -28.5h-185q-74 0 -105.5 28.5t-31.5 74.5q0 45 31 73.5 t96 28.5v387q0 67 -36 98q-47 40 -141 40q-71 0 -124.5 -27.5t-135.5 -116.5v-381q79 0 102 -15q49 -30 49 -88q0 -45 -31.5 -73.5t-105.5 -28.5h-233q-74 0 -105.5 28.5t-31.5 74.5z" />
<glyph unicode="o" d="M86 439q0 123 68 241.5t195.5 186.5t266.5 68q140 0 269.5 -69.5t195.5 -187t66 -241.5q0 -118 -65.5 -228.5t-195 -176t-270.5 -65.5q-140 0 -268 64.5t-195 175.5t-67 232zM291 435q0 -96 94 -179.5t231 -83.5q138 0 232 83.5t94 180.5q0 99 -71 182q-97 112 -255 112 q-139 0 -232 -89t-93 -206z" />
<glyph unicode="p" d="M-17 -326q0 46 32 74.5t105 28.5h35v926h-35q-74 0 -105.5 28.5t-31.5 74.5q0 45 31.5 73.5t105.5 28.5h240v-70q72 49 149 73t158 24q210 0 358 -142.5t148 -326.5q0 -203 -175 -335q-146 -110 -329 -110q-79 0 -156 23t-153 69v-336h123q74 0 105.5 -28.5t31.5 -74.5 q0 -45 -31.5 -73.5t-105.5 -28.5h-363q-74 0 -105.5 28.5t-31.5 73.5zM360 463q0 -82 87.5 -159.5t216.5 -77.5q130 0 217 77t87 162q0 43 -34 109.5t-104.5 111t-165.5 44.5q-153 0 -243 -115q-61 -79 -61 -152z" />
<glyph unicode="q" d="M72 466q0 184 148 326.5t359 142.5q81 0 157.5 -24t148.5 -73v70h241q73 0 104.5 -28.5t31.5 -74.5q0 -45 -31 -73.5t-105 -28.5h-36v-926h36q73 0 104.5 -28.5t31.5 -74.5q0 -45 -31 -73.5t-105 -28.5h-363q-74 0 -105.5 28.5t-31.5 73.5q0 46 31.5 74.5t105.5 28.5h122 v336q-75 -46 -152.5 -69t-156.5 -23q-183 0 -329 110q-175 132 -175 335zM277 463q0 -83 87.5 -160t216.5 -77q130 0 217 77t87 162q0 43 -34 109.5t-105 111t-165 44.5q-154 0 -243 -115q-61 -79 -61 -152z" />
<glyph unicode="r" d="M108 103q0 45 31.5 73.5t105.5 28.5h122v498h-74q-74 0 -105.5 28.5t-31.5 74.5q0 45 31.5 73.5t105.5 28.5h279v-128q129 93 203.5 124t139.5 31q100 0 194 -74q64 -50 64 -102q0 -44 -30.5 -74.5t-73.5 -30.5q-38 0 -80 38t-75 38q-43 0 -128.5 -54t-213.5 -162v-309 h292q74 0 105.5 -28.5t31.5 -74.5q0 -45 -31.5 -73.5t-105.5 -28.5h-619q-74 0 -105.5 28.5t-31.5 74.5z" />
<glyph unicode="s" d="M151 138v69q0 74 28.5 105.5t74.5 31.5q37 0 62 -20.5t39 -70.5q47 -40 113 -60.5t152 -20.5q141 0 219 44q37 22 37 46q0 40 -53 66t-219 44q-247 26 -330 100q-83 73 -83 180q0 110 93 183q126 100 330 100q71 0 136.5 -13.5t125.5 -41.5q19 14 35.5 21t30.5 7 q42 0 70 -31.5t28 -105.5v-50q0 -67 -16 -91q-32 -46 -87 -46q-37 0 -65 23t-36 61q-50 31 -105 46.5t-115 15.5q-119 0 -189 -39q-31 -17 -31 -37q0 -23 42 -45q32 -16 143 -31q204 -28 284 -56q105 -37 162 -110t57 -154q0 -110 -97 -184q-139 -107 -361 -107 q-89 0 -164.5 15.5t-138.5 45.5q-15 -13 -32 -20t-35 -7q-48 0 -76.5 31.5t-28.5 105.5z" />
<glyph unicode="t" d="M148 806q0 45 31.5 73.5t105.5 28.5h74v185q0 74 28.5 105.5t74.5 31.5q45 0 73.5 -31.5t28.5 -105.5v-185h379q74 0 105.5 -28.5t31.5 -74.5q0 -45 -31.5 -73.5t-105.5 -28.5h-379v-411q0 -66 27 -87q42 -33 150 -33q157 0 290 67q51 26 80 25q40 0 69.5 -29.5 t29.5 -72.5q0 -40 -32 -69q-49 -47 -193.5 -86.5t-243.5 -39.5q-191 0 -286.5 82.5t-95.5 202.5v451h-74q-74 0 -105.5 28.5t-31.5 74.5z" />
<glyph unicode="u" d="M30 806q0 45 31.5 73.5t105.5 28.5h240v-610q0 -65 31.5 -95.5t96.5 -30.5q62 0 133.5 24.5t176.5 88.5v418h-74q-74 0 -105.5 28.5t-31.5 74.5q0 45 31.5 73.5t105.5 28.5h279v-703q65 0 96 -29t31 -74t-31.5 -73.5t-105.5 -28.5h-195v47q-88 -40 -168 -60t-152 -20 q-101 0 -175 42.5t-117 117.5q-31 54 -31 135v441h-35q-74 0 -105.5 28.5t-31.5 74.5z" />
<glyph unicode="v" d="M0 806q0 45 31.5 73.5t105.5 28.5h275q73 0 104.5 -28.5t31.5 -74.5q0 -57 -48 -87q-24 -15 -107 -15l223 -454l221 454q-82 0 -105 14q-50 31 -50 89q0 45 31.5 73.5t105.5 28.5h281q74 0 105.5 -28.5t31.5 -74.5q0 -45 -31.5 -73.5t-105.5 -28.5h-34l-343 -703h-214 l-343 703h-29q-74 0 -105.5 28.5t-31.5 74.5z" />
<glyph unicode="w" d="M-4 806q0 45 31.5 73.5t105.5 28.5h191q74 0 105.5 -28.5t31.5 -74.5t-36 -78q-27 -24 -106 -24l78 -325l127 333h182l128 -333l80 325q-76 0 -100 15q-48 31 -48 88q0 45 31.5 73.5t105.5 28.5h193q74 0 105.5 -28.5t31.5 -74.5q0 -41 -27.5 -69.5t-81.5 -32.5 l-168 -703h-190l-150 378l-142 -378h-193l-172 703q-56 3 -84.5 31.5t-28.5 71.5z" />
<glyph unicode="x" d="M43 103q0 42 28 70.5t84 31.5l304 268l-269 230q-53 4 -80.5 32.5t-27.5 70.5q0 45 31.5 73.5t105.5 28.5h192q74 0 105.5 -28.5t31.5 -72.5q0 -59 -56 -96l124 -103l122 105q-55 39 -55 90q0 48 31.5 76.5t105.5 28.5h190q74 0 105.5 -28.5t31.5 -74.5 q0 -41 -27.5 -69.5t-81.5 -32.5l-270 -231l311 -267q56 -3 84 -31.5t28 -71.5q0 -45 -31.5 -73.5t-105.5 -28.5h-233q-74 0 -105.5 28.5t-31.5 75.5q0 36 22.5 63.5t61.5 37.5l-153 132l-156 -132q47 -12 67.5 -37t20.5 -64q0 -47 -31 -75.5t-105 -28.5h-231 q-74 0 -105.5 28.5t-31.5 74.5z" />
<glyph unicode="y" d="M43 -326q0 46 31.5 74.5t105.5 28.5h204l116 230l-355 696q-50 6 -76 34t-26 68q0 46 31.5 74.5t105.5 28.5h187q74 0 105.5 -28.5t31.5 -74.5q0 -45 -31.5 -73.5t-99.5 -28.5l242 -471l240 471q-66 0 -97.5 28.5t-31.5 74.5q0 45 31.5 73.5t105.5 28.5h193 q73 0 104.5 -28.5t31.5 -74.5q0 -41 -27 -69.5t-80 -32.5l-470 -926q77 0 101 -15q48 -31 48 -88q0 -45 -31.5 -73.5t-105.5 -28.5h-447q-74 0 -105.5 28.5t-31.5 73.5z" />
<glyph unicode="z" d="M177 0v170l540 533h-314v-20q0 -73 -28.5 -104.5t-74.5 -31.5t-74.5 31.5t-28.5 104.5l1 225h848v-168l-542 -535h360q3 57 31.5 85.5t70.5 28.5q46 0 74.5 -31.5t28.5 -105.5v-182h-892z" />
<glyph unicode="{" d="M344 497q0 45 24.5 72t71 32.5t56.5 18.5q17 20 17 62v342q0 110 80 190.5t185 80.5q48 0 78.5 -30t30.5 -74q0 -41 -27 -70t-70 -33t-54 -18q-18 -21 -18 -62v-326q0 -69 -13.5 -106.5t-48.5 -78.5q36 -41 49 -79.5t13 -124.5v-326q0 -41 15.5 -58.5t57.5 -21t69 -32.5 t27 -71q0 -44 -30.5 -74t-77.5 -30q-67 0 -129 35.5t-108 115.5q-29 52 -29 121v361q0 43 -14 59t-60 21.5t-70.5 32.5t-24.5 71z" />
<glyph unicode="|" d="M513 -123v1220q0 105 5 125q8 30 35.5 51t62.5 21q34 0 61.5 -21t35.5 -52q5 -20 5 -124v-1220q0 -105 -5 -125q-8 -30 -35.5 -51t-61.5 -21q-35 0 -62.5 21t-35.5 53q-5 18 -5 123z" />
<glyph unicode="}" d="M337 -216q0 41 27 70t70 33t54 18q18 21 18 62v326q0 86 12.5 124t49.5 80q-35 41 -48.5 79.5t-13.5 105.5v326q0 41 -15.5 58.5t-57.5 21.5t-69 33t-27 70q0 44 30.5 74t77.5 30q67 0 129 -35.5t108 -115.5q29 -52 29 -120v-342q0 -43 14 -59.5t60 -21.5t70.5 -32 t24.5 -72q0 -44 -24.5 -71t-71 -32.5t-56.5 -18.5q-17 -20 -17 -62v-361q0 -111 -80 -191.5t-185 -80.5q-48 0 -78.5 30t-30.5 74z" />
<glyph unicode="~" d="M125 538q0 61 104 159t204 98q55 0 113 -28.5t153 -122.5q49 -49 72 -62q15 -8 27 -8q14 0 25 8q25 17 80 82q35 42 54.5 53.5t43.5 11.5q44 0 74 -30t30 -72q0 -43 -45 -96q-68 -79 -114 -112q-68 -50 -145 -50q-58 0 -115 29t-142.5 110.5t-109.5 81.5q-12 0 -23 -8 q-22 -14 -71.5 -69t-69.5 -66.5t-40 -11.5q-42 0 -73.5 31t-31.5 72z" />
<glyph unicode="&#xa0;" />
<glyph unicode="&#xa1;" d="M444 -224q0 27 5 72l57 546q5 48 32.5 74t69.5 26t69.5 -26t32.5 -74l57 -546q5 -44 5 -69q0 -93 -49.5 -147.5t-114.5 -54.5t-114.5 54.5t-49.5 144.5zM487 781q0 44 32.5 74.5t90.5 30.5q59 0 91.5 -30.5t32.5 -74.5t-32.5 -74t-91.5 -30q-58 0 -90.5 30.5t-32.5 73.5z " />
<glyph unicode="&#xa2;" d="M170 648q0 151 95.5 270.5t247.5 156.5v191q0 74 28.5 105.5t74.5 31.5q45 0 73.5 -31.5t28.5 -105.5v-170q93 -15 153 -51q26 8 42 8q48 0 76.5 -31t28.5 -105v-87q0 -74 -28.5 -105t-73.5 -31q-46 0 -73 28q-16 16 -30 77q-11 45 -40 64q-42 27 -121 27 q-123 0 -200 -72t-77 -174q0 -98 73 -168t185 -70q113 0 220 76q35 25 70 25q41 0 72 -31.5t31 -73.5q0 -50 -53 -95q-90 -74 -255 -102v-132q0 -74 -28.5 -105.5t-74.5 -31.5q-45 0 -73.5 31.5t-28.5 105.5v141q-157 38 -250 156.5t-93 277.5z" />
<glyph unicode="&#xa3;" d="M62 609q0 45 31.5 74t105.5 28h94q-36 103 -36 188q0 149 100 246t258 97q141 0 248 -83q81 -64 81 -129q0 -46 -29.5 -76t-72.5 -30q-25 0 -45 10q-12 7 -42.5 40.5t-61.5 48t-79 14.5q-69 0 -110.5 -37.5t-41.5 -88.5q0 -29 6 -61q3 -18 36 -139h143q74 0 105.5 -28 t31.5 -74t-31.5 -74.5t-105.5 -28.5h-96q2 -37 2 -58q0 -61 -12 -121.5t-37 -121.5h422q5 47 31.5 71.5t67.5 24.5q46 0 76 -30t30 -83q0 -65 -28 -107t-85 -65q-38 -16 -111 -16h-662q-73 0 -105 28.5t-32 75.5q0 39 22.5 64t82.5 38t87 56q45 74 45 204q0 14 -1 40h-145 q-74 0 -105.5 28.5t-31.5 74.5z" />
<glyph unicode="&#xa4;" d="M145 244q0 23 10 42t44 53l67 67q-54 95 -54 203t52 200l-66 66q-18 18 -43 59q-9 14 -9 40q0 43 30.5 73t75.5 30q22 0 41 -10t53 -43l65 -65q48 28 99 42t105 14q53 0 104 -14t100 -42l62 62q35 35 53.5 44.5t43.5 9.5q43 0 73.5 -31t30.5 -76q0 -23 -10 -42t-43 -52 l-64 -64q52 -95 52 -201q0 -108 -53 -203l67 -67q34 -35 44 -53.5t10 -43.5q0 -42 -32 -74t-76 -32q-23 0 -42 10.5t-53 44.5l-66 67q-46 -27 -96.5 -41t-104.5 -14t-104.5 14t-97.5 41l-67 -66q-35 -35 -53.5 -45t-43.5 -10q-42 0 -73 31.5t-31 75.5zM419 610 q0 -84 57.5 -143t138.5 -59q80 0 138 59t58 144q0 83 -58 141t-138 58q-81 0 -138.5 -58.5t-57.5 -141.5z" />
<glyph unicode="&#xa5;" d="M43 1104q0 46 31.5 74t105.5 35h192q74 -7 105.5 -35t31.5 -74q0 -38 -22.5 -65.5t-59.5 -34.5l191 -282l193 281q-42 11 -63 38t-21 63q0 46 31 74t106 35h189q74 -7 105.5 -35t31.5 -74q0 -45 -31.5 -73.5t-103.5 -28.5l-285 -419h153q31 0 44 -11.5t13 -30.5 t-13 -30.5t-44 -11.5h-204v-133h204q31 0 44 -11.5t13 -30.5t-13 -30.5t-44 -11.5h-204v-77h99q74 0 105.5 -28.5t31.5 -74.5q0 -45 -31.5 -73.5t-105.5 -28.5h-402q-74 0 -105.5 28.5t-31.5 74.5q0 45 31.5 73.5t105.5 28.5h98v77h-204q-31 0 -43.5 11.5t-12.5 30.5 t12.5 30.5t43.5 11.5h204v133h-204q-30 0 -43 11.5t-13 30.5t13 30.5t43 11.5h153l-283 419q-74 0 -105.5 28t-31.5 74z" />
<glyph unicode="&#xa6;" d="M513 -123v315q0 105 5 125q8 30 35.5 51t62.5 21q34 0 61.5 -21t35.5 -51q5 -21 5 -125v-315q0 -105 -5 -125q-8 -30 -35.5 -51t-61.5 -21q-35 0 -62.5 21t-35.5 53q-5 18 -5 123zM513 782v315q0 105 5 125q8 30 35.5 51t62.5 21q34 0 61.5 -21t35.5 -51q5 -21 5 -125 v-315q0 -105 -5 -125q-8 -30 -35.5 -51t-61.5 -21q-35 0 -62.5 21t-35.5 53q-5 18 -5 123z" />
<glyph unicode="&#xa7;" d="M99 745q0 68 48.5 122.5t151.5 79.5q-12 30 -12 58q0 81 43 153.5t125 114.5q58 30 150 30h440v-249q0 -56 -21 -80t-54 -24t-54 24t-21 80v94h-304q-66 0 -108.5 -40t-42.5 -88q0 -35 34 -75q47 -55 189 -135l181 -101q166 -93 228 -171t62 -158q0 -69 -50 -124.5 t-151 -76.5q11 -43 11 -74q0 -62 -24.5 -113t-67.5 -90t-78 -54q-51 -22 -134 -22h-453v247q0 56 21.5 80t54.5 24t54 -24t21 -80v-96h306q62 0 103.5 39.5t41.5 85.5q0 28 -18 56.5t-77 74t-123 82.5l-209 119q-131 75 -197 157.5t-66 153.5zM249 743q0 -65 206 -183 l202 -115q104 -59 168 -116q100 0 134 21q26 16 26 37q0 61 -228 192l-196 113q-83 47 -157 108q-88 0 -129 -25q-26 -16 -26 -32z" />
<glyph unicode="&#xa8;" d="M292 1177q0 45 32 76.5t77 31.5t76.5 -31.5t31.5 -76.5q0 -46 -31.5 -77.5t-76.5 -31.5t-77 32t-32 77zM720 1177q0 45 31.5 76.5t76.5 31.5t77 -31.5t32 -76.5q0 -46 -32 -77.5t-77 -31.5t-76.5 32t-31.5 77z" />
<glyph unicode="&#xa9;" d="M-6 591q0 162 82.5 309t229 229.5t309.5 82.5t311.5 -84t228.5 -230.5t80 -306.5t-80 -306t-229 -230t-311 -84t-309 82t-229.5 229t-82.5 309zM116 591q0 -206 146.5 -352t353.5 -146q131 0 251 67.5t184 185.5t64 245q0 128 -64 245.5t-184 185.5t-251 68 q-207 0 -353.5 -146t-146.5 -353zM303 537v75q0 137 89 228t216 91q47 0 89.5 -11t79.5 -34q10 15 22 22t26 7q25 0 40.5 -17t15.5 -57l-1 -95q0 -40 -15 -57t-40 -17q-22 0 -35.5 12.5t-19.5 46t-40 55.5q-51 34 -118 34q-86 0 -142 -60t-56 -148v-73q0 -80 58.5 -133.5 t162.5 -53.5q62 0 105 17q25 9 52.5 37.5t49.5 28.5t39 -17t17 -40q0 -39 -60 -81q-78 -57 -202 -57q-153 0 -243 87t-90 210z" />
<glyph unicode="&#xaa;" d="M273 914q0 76 84 143t238 67q60 0 139 -12v30q0 26 -25 44t-98 18q-58 0 -153 -21q-35 -8 -55 -8q-27 0 -45.5 18t-18.5 44q0 41 51 56q112 34 216 34q136 0 199 -54t63 -130v-254h23q48 0 68.5 -17.5t20.5 -43.5q0 -27 -20.5 -44.5t-68.5 -17.5h-157v29 q-50 -24 -105 -36.5t-115 -12.5q-110 0 -184 60q-57 46 -57 108zM411 917q0 -17 17 -28q31 -20 89 -20t112 16t105 48v54q-83 14 -146 14q-84 0 -142 -38q-35 -23 -35 -46z" />
<glyph unicode="&#xab;" d="M71 427l477 403q33 28 54 28q26 0 43.5 -18t17.5 -45q0 -23 -30 -54l-293 -306l286 -281q30 -29 30 -56q0 -25 -18 -42.5t-44 -17.5q-23 0 -43 19q-6 5 -10 9zM544 426l477 404q33 27 55 27q25 0 42.5 -18t17.5 -44q0 -23 -30 -54l-293 -306l286 -281q30 -29 30 -56 q0 -25 -18 -43t-44 -18q-23 0 -43 19q-6 6 -10 9z" />
<glyph unicode="&#xac;" d="M-39 583q0 46 31.5 74t105.5 28h1048v-548q0 -74 -28.5 -105.5t-74.5 -31.5t-74.5 31.5t-28.5 105.5v343h-842q-74 0 -105.5 28.5t-31.5 74.5z" />
<glyph unicode="&#xad;" d="M188 488v187h856v-187h-856z" />
<glyph unicode="&#xae;" d="M-6 591q0 162 82.5 309t229 229.5t309.5 82.5t311.5 -84t228.5 -230.5t80 -306.5t-80 -306t-229 -230t-311 -84t-309 82t-229.5 229t-82.5 309zM116 591q0 -206 146.5 -352t353.5 -146q131 0 251 67.5t184 185.5t64 245q0 128 -64 245.5t-184 185.5t-251 68 q-207 0 -353.5 -146t-146.5 -353zM290 316q0 26 21 43q14 12 70 12v435q-56 0 -71 13q-20 17 -20 43q0 25 17 40.5t57 15.5h252q117 0 182 -58.5t65 -142.5q0 -52 -30.5 -94.5t-91.5 -75.5q68 -58 143 -176q46 0 63 -15t17 -41q0 -24 -17 -39.5t-57 -15.5h-63 q-137 210 -224 251h-110v-140h40q40 0 57 -15.5t17 -40.5q0 -24 -17 -39.5t-57 -15.5h-169q-40 0 -57 15.5t-17 40.5zM493 622h86q82 0 139 41q34 24 34 58q0 32 -33.5 58.5t-98.5 26.5h-127v-184z" />
<glyph unicode="&#xaf;" d="M-81 1462q0 45 31.5 73.5t105.5 28.5h1126q73 0 104.5 -28.5t31.5 -74.5q0 -45 -31 -73.5t-105 -28.5h-1126q-74 0 -105.5 28.5t-31.5 74.5z" />
<glyph unicode="&#xb0;" d="M295 1172q0 133 93.5 226t225.5 93t225.5 -93.5t93.5 -225.5t-93.5 -225.5t-225.5 -93.5t-225.5 93.5t-93.5 225.5zM461 1172q0 -63 45 -108t108 -45t108 45t45 108t-45 108t-108 45t-108 -45t-45 -108z" />
<glyph unicode="&#xb1;" d="M82 103q0 34 21 61.5t52 35.5q20 5 124 5h671q105 0 125 -5q30 -8 51 -35.5t21 -61.5q0 -35 -21 -62.5t-52 -35.5q-20 -5 -124 -5h-671q-105 0 -125 5q-30 8 -51 35.5t-21 62.5zM82 863q0 45 31.5 73.5t105.5 28.5h293v342q0 73 28.5 104.5t74.5 31.5t74.5 -31t28.5 -105 l-1 -342h293q74 0 105.5 -28.5t31.5 -74.5q0 -45 -31.5 -73.5t-105.5 -28.5h-293v-343q0 -74 -28 -105.5t-74 -31.5t-74.5 31.5t-28.5 105.5v343h-293q-74 0 -105.5 28.5t-31.5 74.5z" />
<glyph unicode="&#xb2;" d="M305 637v119q322 226 399 304q30 30 30 58q0 36 -33.5 63.5t-95.5 27.5q-52 0 -85 -20q-34 -21 -44.5 -50.5t-25.5 -39.5q-20 -13 -48 -13q-32 0 -52.5 18t-20.5 39q0 30 33 77t99 77t145 30q125 0 199 -64t74 -146q0 -56 -38.5 -107.5t-224.5 -188.5l-91 -66h237 q23 15 45 15q36 0 57 -21q16 -16 16 -55v-57h-575z" />
<glyph unicode="&#xb3;" d="M320 717q0 24 20 42t51 18q24 0 45 -13q40 -24 140 -24q111 0 155 29q30 20 30 56q0 49 -59 85q-40 24 -119 28q-38 2 -56 19q-19 17 -19 40q0 24 20.5 41.5t54.5 17.5q67 0 81 4q33 9 52 30t19 45q0 30 -26 50q-33 25 -98 25q-81 0 -127 -44q-23 -22 -56 -22 q-31 0 -51.5 18t-20.5 41q0 36 50 68q85 56 214 56q122 0 191 -59t69 -134q0 -42 -19.5 -77.5t-58.5 -63.5q52 -31 78 -72.5t26 -93.5q0 -84 -76 -144.5t-247 -60.5q-151 0 -224 43q-39 22 -39 52z" />
<glyph unicode="&#xb4;" d="M420 1091q0 32 40 64l226 183q34 27 57 27q28 0 47.5 -19t19.5 -46q0 -33 -41 -65l-225 -183q-34 -27 -57 -27q-28 0 -47.5 19t-19.5 47z" />
<glyph unicode="&#xb5;" d="M29 806q0 45 31.5 73.5t105.5 28.5h240v-610q0 -65 31.5 -95.5t96.5 -30.5q62 0 133.5 24.5t176.5 88.5v418h-74q-74 0 -105.5 28.5t-31.5 74.5q0 45 31.5 73.5t105.5 28.5h279v-703q65 0 96 -29t31 -74t-31.5 -73.5t-105.5 -28.5h-195v47l-104 -46q-37 -14 -93 -24.5 t-107 -10.5q-33 0 -66.5 5.5t-67.5 16.5v-279q0 -74 -28.5 -105.5t-74.5 -31.5q-45 0 -73.5 31.5t-28.5 105.5v994h-35q-74 0 -105.5 28.5t-31.5 74.5z" />
<glyph unicode="&#xb6;" d="M125 864v89q0 83 58.5 160.5t148.5 116.5q146 63 290 64h384q56 0 80 -21.5t24 -54.5t-24 -54t-80 -21h-65v-1171h69q55 0 79 -21t24 -54t-23.5 -54t-79.5 -21h-182q-28 0 -46.5 13.5t-31.5 51.5q-17 -41 -34 -53t-49 -12h-266q-56 0 -80 21t-24 54t24 54.5t80 21.5 l154 -1v548q-136 14 -237 69t-161 150q-32 52 -32 125zM344 864q0 -56 50 -109t161 -77v455q-109 -23 -160 -75.5t-51 -109.5v-84zM705 -28q33 -15 44 -53q13 38 42 53v1171h-86v-1171z" />
<glyph unicode="&#xb7;" d="M708 745q0 53 38 91.5t92 38.5q53 0 91 -38t38 -92t-38 -92t-91 -38q-54 0 -92 38t-38 92z" />
<glyph unicode="&#xb8;" d="M409 -253q0 27 19.5 46.5t46.5 19.5q17 0 53 -20q48 -27 97 -27q24 0 36 8q10 6 10 12t-8 10q-17 9 -52 9h-58v190q0 38 19 58t47 20q29 0 48 -19.5t19 -47.5v-75q56 -16 86.5 -54.5t30.5 -88.5q0 -63 -49.5 -109t-126.5 -46q-104 0 -183 52q-35 23 -35 62z" />
<glyph unicode="&#xb9;" d="M339 696q0 24 21.5 41.5t71.5 17.5h110v420l-94 -22q-26 -6 -40 -6q-30 0 -49.5 18.5t-19.5 42.5q0 22 14 36t61 25l273 61v-575h111q50 0 71 -17.5t21 -41.5t-21 -41.5t-71 -17.5h-366q-50 0 -71.5 17.5t-21.5 41.5z" />
<glyph unicode="&#xba;" d="M271 1030q0 72 43 143t126 112.5t176 41.5q148 0 246 -89.5t98 -209.5q0 -111 -96 -196.5t-248 -85.5q-153 0 -249 85.5t-96 198.5zM404 1027q0 -56 60 -107t152 -51q91 0 151 51t60 108q0 68 -59.5 122t-151.5 54q-93 0 -152.5 -54.5t-59.5 -122.5z" />
<glyph unicode="&#xbb;" d="M104 809q0 25 18 42.5t44 17.5q21 0 53 -27l477 -404l-469 -361l-10 -8q-22 -20 -45 -20q-25 0 -43 18t-18 45q0 25 30 54l286 281l-293 306q-30 31 -30 56zM577 809q0 25 18 43t44 18q21 0 54 -28l476 -403l-469 -361l-10 -9q-22 -19 -45 -19q-25 0 -43 18t-18 44 q0 25 30 54l286 281l-293 306q-30 31 -30 56z" />
<glyph unicode="&#xbc;" d="M2 696q0 26 22 42.5t95 16.5h86v420l-70 -22q-19 -5 -42 -5q-29 0 -48 18t-19 42q0 23 13.5 36t61.5 25l249 61v-575h86q50 0 71.5 -17.5t21.5 -41.5t-21 -41.5t-72 -17.5h-341q-51 0 -72 17.5t-21 41.5zM241 402q0 26 11.5 43.5t49.5 40.5l707 455q43 28 66 28 q35 0 59.5 -25t24.5 -59q0 -25 -12 -42.5t-49 -41.5l-707 -454q-43 -29 -66 -29q-35 0 -59.5 25t-24.5 59zM680 146v95l294 432h180v-409q35 0 54.5 -17.5t19.5 -40.5q0 -24 -20 -42t-54 -18v-28q35 0 54.5 -17.5t19.5 -41.5t-21 -41.5t-71 -17.5h-162q-51 0 -72.5 17 t-21.5 42q0 24 21.5 41.5t72.5 17.5h34v28h-328zM862 264h146v215z" />
<glyph unicode="&#xbd;" d="M-95 696q0 24 21.5 41.5t71.5 17.5h110v420l-94 -22q-26 -6 -40 -6q-30 0 -49.5 18.5t-19.5 42.5q0 22 14 36.5t61 24.5l273 61v-575h111q50 0 71 -17.5t21 -41.5t-21 -41.5t-71 -17.5h-366q-50 0 -71.5 17.5t-21.5 41.5zM179 402q0 26 12 43.5t49 40.5l707 455 q44 28 67 28q34 0 58.5 -25t24.5 -59q0 -25 -11.5 -42.5t-49.5 -41.5l-706 -454q-44 -29 -66 -29q-35 0 -60 25t-25 59zM727 0v118q321 225 400 305q29 29 29 58q0 36 -33.5 63.5t-95.5 27.5q-52 0 -85 -20q-34 -21 -44.5 -50.5t-24.5 -39.5q-21 -13 -49 -13 q-32 0 -52.5 17.5t-20.5 38.5q0 30 33 77.5t99 77.5t146 30q124 0 198 -64t74 -147q0 -55 -33 -100q-46 -61 -230 -195l-91 -66h243q20 15 42 15q34 0 55 -21q16 -16 16 -55v-57h-576z" />
<glyph unicode="&#xbe;" d="M0 717q0 24 20 42t51 18q24 0 45 -13q40 -24 140 -24q111 0 155 29q30 20 30 56q0 49 -59 85q-40 24 -119 28q-38 2 -56 19q-19 17 -19 40q0 24 20.5 41.5t54.5 17.5q67 0 81 4q33 9 52 30t19 45q0 30 -26 50q-33 25 -98 25q-81 0 -127 -44q-23 -22 -56 -22 q-31 0 -51.5 18t-20.5 40q0 37 53 71q89 57 214 54t191 -61q66 -59 66 -133q0 -22 -6 -42.5t-16 -38.5q-5 -10 -11 -17l-42 -42q64 -54 77 -77q24 -44 24 -89q0 -84 -76 -144.5t-247 -60.5q-151 0 -224 43q-39 22 -39 52zM220 402q0 26 12 43.5t49 40.5l707 455q44 28 67 28 q34 0 58.5 -25t24.5 -59q0 -25 -11.5 -42.5t-49.5 -41.5l-706 -454q-44 -29 -66 -29q-35 0 -60 25t-25 59zM668 146v95l294 432h180v-409q35 0 55 -17.5t20 -40.5q0 -24 -20.5 -42t-54.5 -18v-28q35 0 55 -17.5t20 -41.5t-21.5 -41.5t-71.5 -17.5h-162q-51 0 -72.5 17 t-21.5 42q0 24 21.5 41.5t72.5 17.5h34v28h-328zM850 264h146v215z" />
<glyph unicode="&#xbf;" d="M168 -44q0 116 71.5 199.5t271.5 172.5q-3 95 25.5 129.5t77.5 34.5q45 0 73.5 -31.5t28.5 -105.5v-168q-243 -93 -293 -143t-50 -99q0 -66 59 -118t164 -52q114 0 219 52q0 71 15 94q32 48 87 48q46 0 74.5 -31.5t28.5 -105.5v-140q-158 -75 -245 -98.5t-179 -23.5 q-206 0 -317 117.5t-111 268.5zM468 777q0 46 33.5 75.5t111.5 29.5t111.5 -29.5t33.5 -75.5q0 -47 -33.5 -76.5t-111.5 -29.5t-111.5 29.5t-33.5 76.5z" />
<glyph unicode="&#xc0;" d="M-46 103q0 46 33 75t109 27l322 802h-134q-74 0 -105.5 28.5t-31.5 74.5t31.5 74.5t105.5 28.5l443 -1l408 -1007q72 0 95 -16q46 -33 46 -87q0 -45 -31 -73.5t-105 -28.5h-276q-74 0 -105.5 28.5t-31.5 74.5q0 45 31.5 73.5t105.5 28.5h50l-49 125h-498l-50 -125h50 q74 0 105.5 -28.5t31.5 -74.5q0 -45 -31.5 -73.5t-105.5 -28.5h-276q-74 0 -105.5 28.5t-31.5 74.5zM355 1618q0 28 19.5 47t47.5 19q23 0 57 -27l225 -183q41 -32 41 -64q0 -28 -19.5 -47t-47.5 -19q-23 0 -57 27l-226 183q-40 32 -40 64zM449 535h331l-165 406z" />
<glyph unicode="&#xc1;" d="M-46 103q0 46 33 75t109 27l322 802h-134q-74 0 -105.5 28.5t-31.5 74.5t31.5 74.5t105.5 28.5l443 -1l408 -1007q72 0 95 -16q46 -33 46 -87q0 -45 -31 -73.5t-105 -28.5h-276q-74 0 -105.5 28.5t-31.5 74.5q0 45 31.5 73.5t105.5 28.5h50l-49 125h-498l-50 -125h50 q74 0 105.5 -28.5t31.5 -74.5q0 -45 -31.5 -73.5t-105.5 -28.5h-276q-74 0 -105.5 28.5t-31.5 74.5zM449 535h331l-165 406zM465 1410q0 32 40 64l226 183q34 27 57 27q28 0 47.5 -19t19.5 -46q0 -33 -41 -65l-225 -183q-34 -27 -57 -27q-28 0 -47.5 19t-19.5 47z" />
<glyph unicode="&#xc2;" d="M-46 103q0 46 33 75t109 27l322 802h-134q-74 0 -105.5 28.5t-31.5 74.5t31.5 74.5t105.5 28.5l443 -1l408 -1007q72 0 95 -16q46 -33 46 -87q0 -45 -31 -73.5t-105 -28.5h-276q-74 0 -105.5 28.5t-31.5 74.5q0 45 31.5 73.5t105.5 28.5h50l-49 125h-498l-50 -125h50 q74 0 105.5 -28.5t31.5 -74.5q0 -45 -31.5 -73.5t-105.5 -28.5h-276q-74 0 -105.5 28.5t-31.5 74.5zM200 1407q0 36 46 67l280 188l283 -188q45 -31 45 -66q0 -28 -20 -49t-49 -21q-20 0 -53 23l-206 138l-204 -138q-33 -23 -54 -23q-27 0 -47.5 21t-20.5 48zM449 535h331 l-165 406z" />
<glyph unicode="&#xc3;" d="M-46 103q0 46 33 75t109 27l322 802h-134q-74 0 -105.5 28.5t-31.5 74.5t31.5 74.5t105.5 28.5l443 -1l408 -1007q72 0 95 -16q46 -33 46 -87q0 -45 -31 -73.5t-105 -28.5h-276q-74 0 -105.5 28.5t-31.5 74.5q0 45 31.5 73.5t105.5 28.5h50l-49 125h-498l-50 -125h50 q74 0 105.5 -28.5t31.5 -74.5q0 -45 -31.5 -73.5t-105.5 -28.5h-276q-74 0 -105.5 28.5t-31.5 74.5zM183 1427q0 37 61 86q82 67 152 67q32 0 60 -11q43 -18 113 -66.5t92 -48.5q26 0 76 45q32 29 44.5 35.5t26.5 6.5q28 0 48 -20t20 -48q0 -35 -72.5 -93.5t-144.5 -58.5 q-35 0 -69.5 14.5t-133.5 83.5q-41 28 -56 28q-22 0 -86 -53q-40 -34 -66 -34t-45.5 19.5t-19.5 47.5zM449 535h331l-165 406z" />
<glyph unicode="&#xc4;" d="M-46 103q0 46 33 75t109 27l322 802h-134q-74 0 -105.5 28.5t-31.5 74.5t31.5 74.5t105.5 28.5l443 -1l408 -1007q72 0 95 -16q46 -33 46 -87q0 -45 -31 -73.5t-105 -28.5h-276q-74 0 -105.5 28.5t-31.5 74.5q0 45 31.5 73.5t105.5 28.5h50l-49 125h-498l-50 -125h50 q74 0 105.5 -28.5t31.5 -74.5q0 -45 -31.5 -73.5t-105.5 -28.5h-276q-74 0 -105.5 28.5t-31.5 74.5zM205 1496q0 45 32 76.5t77 31.5t76.5 -31.5t31.5 -76.5q0 -46 -31.5 -77.5t-76.5 -31.5t-77 32t-32 77zM449 535h331l-165 406zM633 1496q0 45 31.5 76.5t76.5 31.5 t77 -31.5t32 -76.5q0 -46 -32 -77.5t-77 -31.5t-76.5 32t-31.5 77z" />
<glyph unicode="&#xc5;" d="M-46 103q0 46 33 75t109 27l322 802h-134q-74 0 -105.5 28.5t-31.5 74.5t31.5 74.5t105.5 28.5l443 -1l408 -1007q72 0 95 -16q46 -33 46 -87q0 -45 -31 -73.5t-105 -28.5h-276q-74 0 -105.5 28.5t-31.5 74.5q0 45 31.5 73.5t105.5 28.5h50l-49 125h-498l-50 -125h50 q74 0 105.5 -28.5t31.5 -74.5q0 -45 -31.5 -73.5t-105.5 -28.5h-276q-74 0 -105.5 28.5t-31.5 74.5zM364 1517q0 77 57 132.5t139 55.5t139 -55.5t57 -132.5q0 -82 -58 -140t-138 -58q-81 0 -138.5 58t-57.5 140zM449 535h331l-165 406zM456 1517q0 -43 30.5 -73.5 t73.5 -30.5t73.5 30.5t30.5 73.5q0 39 -30 67.5t-74 28.5t-74 -28.5t-30 -67.5z" />
<glyph unicode="&#xc6;" d="M-43 103q0 56 49 87q24 16 103 15l240 802h-30q-74 0 -105.5 28.5t-31.5 74.5t31.5 74.5t105.5 28.5l914 -1v-341q0 -74 -28.5 -105.5t-74.5 -31.5q-45 0 -73.5 31.5t-28.5 105.5v136h-267v-297h42q3 58 31.5 87t71.5 29q46 0 74.5 -31.5t28.5 -105.5l-1 -162 q0 -74 -28 -105t-74 -31q-44 0 -73 30t-30 84h-42v-300h309v49q0 74 28.5 105.5t74.5 31.5q45 0 73.5 -31.5t28.5 -105.5v-254h-742q-64 0 -88.5 13t-43.5 50q-18 -36 -42 -49.5t-87 -13.5h-154q-88 0 -111 14q-50 31 -50 89zM286 205q51 1 74 -10.5t42 -45.5 q17 29 41.5 42.5t67.5 13.5h45v161h-224zM383 537h173v514h-24z" />
<glyph unicode="&#xc7;" d="M64 517v139q0 160 74.5 298.5t206.5 213.5t280 75q89 0 166.5 -20.5t144.5 -62.5q19 26 41.5 39t48.5 13q45 0 73.5 -31t28.5 -105v-174q0 -74 -28.5 -105.5t-73.5 -31.5q-41 0 -66 23t-37 86q-7 42 -28 65q-41 45 -114.5 72t-147.5 27q-92 0 -169 -40t-136 -130 t-59 -214v-133q0 -148 107.5 -247t298.5 -99q114 0 193 31q46 18 98 71q32 32 50 41.5t41 9.5q41 0 72 -31t31 -73t-42 -90q-61 -70 -157 -110q-129 -54 -285 -54q-182 0 -328 75q-118 60 -201 189.5t-83 282.5zM415 -270q0 27 19.5 46.5t46.5 19.5q17 0 53 -20 q48 -27 97 -27q24 0 36 8q10 6 10 12t-8 10q-17 9 -52 9h-58v190q0 38 19 58t47 20q29 0 48 -19.5t19 -47.5v-75q56 -16 86.5 -54.5t30.5 -88.5q0 -63 -49.5 -109t-126.5 -46q-104 0 -183 52q-35 23 -35 62z" />
<glyph unicode="&#xc8;" d="M30 103q0 45 32 73.5t105 28.5h32v802h-32q-74 0 -105.5 28.5t-31.5 74.5t31.5 74.5t105.5 28.5l920 -1v-312q0 -73 -28 -104.5t-74 -31.5t-74.5 31t-28.5 105v107h-478v-296h180q0 80 15 103q31 49 88 49q45 0 73.5 -31.5t28.5 -105.5v-236q0 -67 -16 -90 q-32 -47 -86 -47q-57 0 -88 49q-15 23 -15 104h-180v-301h523v111q0 74 28.5 105.5t74.5 31.5q45 0 73.5 -31.5t28.5 -105.5v-316h-965q-74 0 -105.5 28.5t-31.5 74.5zM420 1618q0 28 19.5 47t47.5 19q23 0 57 -27l225 -183q41 -32 41 -64q0 -28 -19.5 -47t-47.5 -19 q-23 0 -57 27l-226 183q-40 32 -40 64z" />
<glyph unicode="&#xc9;" d="M30 103q0 45 32 73.5t105 28.5h32v802h-32q-74 0 -105.5 28.5t-31.5 74.5t31.5 74.5t105.5 28.5l920 -1v-312q0 -73 -28 -104.5t-74 -31.5t-74.5 31t-28.5 105v107h-478v-296h180q0 80 15 103q31 49 88 49q45 0 73.5 -31.5t28.5 -105.5v-236q0 -67 -16 -90 q-32 -47 -86 -47q-57 0 -88 49q-15 23 -15 104h-180v-301h523v111q0 74 28.5 105.5t74.5 31.5q45 0 73.5 -31.5t28.5 -105.5v-316h-965q-74 0 -105.5 28.5t-31.5 74.5zM419 1410q0 32 40 64l226 183q34 27 57 27q28 0 47.5 -19t19.5 -46q0 -33 -41 -65l-225 -183 q-34 -27 -57 -27q-28 0 -47.5 19t-19.5 47z" />
<glyph unicode="&#xca;" d="M30 103q0 45 32 73.5t105 28.5h32v802h-32q-74 0 -105.5 28.5t-31.5 74.5t31.5 74.5t105.5 28.5l920 -1v-312q0 -73 -28 -104.5t-74 -31.5t-74.5 31t-28.5 105v107h-478v-296h180q0 80 15 103q31 49 88 49q45 0 73.5 -31.5t28.5 -105.5v-236q0 -67 -16 -90 q-32 -47 -86 -47q-57 0 -88 49q-15 23 -15 104h-180v-301h523v111q0 74 28.5 105.5t74.5 31.5q45 0 73.5 -31.5t28.5 -105.5v-316h-965q-74 0 -105.5 28.5t-31.5 74.5zM287 1407q0 36 46 67l280 188l283 -188q45 -31 45 -66q0 -28 -20 -49t-49 -21q-20 0 -53 23l-206 138 l-204 -138q-33 -23 -54 -23q-27 0 -47.5 21t-20.5 48z" />
<glyph unicode="&#xcb;" d="M30 103q0 45 32 73.5t105 28.5h32v802h-32q-74 0 -105.5 28.5t-31.5 74.5t31.5 74.5t105.5 28.5l920 -1v-312q0 -73 -28 -104.5t-74 -31.5t-74.5 31t-28.5 105v107h-478v-296h180q0 80 15 103q31 49 88 49q45 0 73.5 -31.5t28.5 -105.5v-236q0 -67 -16 -90 q-32 -47 -86 -47q-57 0 -88 49q-15 23 -15 104h-180v-301h523v111q0 74 28.5 105.5t74.5 31.5q45 0 73.5 -31.5t28.5 -105.5v-316h-965q-74 0 -105.5 28.5t-31.5 74.5zM292 1496q0 45 32 76.5t77 31.5t76.5 -31.5t31.5 -76.5q0 -46 -31.5 -77.5t-76.5 -31.5t-77 32t-32 77z M720 1496q0 45 31.5 76.5t76.5 31.5t77 -31.5t32 -76.5q0 -46 -32 -77.5t-77 -31.5t-76.5 32t-31.5 77z" />
<glyph unicode="&#xcc;" d="M168 103q0 45 31.5 73.5t105.5 28.5h207v802h-207q-74 0 -105.5 28.5t-31.5 74.5t31.5 74.5t105.5 28.5l619 -1q74 0 105.5 -28t31.5 -74t-31.5 -74.5t-105.5 -28.5h-207v-802h207q74 0 105.5 -28.5t31.5 -74.5q0 -45 -31.5 -73.5t-105.5 -28.5h-619q-74 0 -105.5 28.5 t-31.5 74.5zM419 1618q0 28 19.5 47t47.5 19q23 0 57 -27l225 -183q41 -32 41 -64q0 -28 -19.5 -47t-47.5 -19q-23 0 -57 27l-226 183q-40 32 -40 64z" />
<glyph unicode="&#xcd;" d="M168 103q0 45 31.5 73.5t105.5 28.5h207v802h-207q-74 0 -105.5 28.5t-31.5 74.5t31.5 74.5t105.5 28.5l619 -1q74 0 105.5 -28t31.5 -74t-31.5 -74.5t-105.5 -28.5h-207v-802h207q74 0 105.5 -28.5t31.5 -74.5q0 -45 -31.5 -73.5t-105.5 -28.5h-619q-74 0 -105.5 28.5 t-31.5 74.5zM419 1410q0 32 40 64l226 183q34 27 57 27q28 0 47.5 -19t19.5 -46q0 -33 -41 -65l-225 -183q-34 -27 -57 -27q-28 0 -47.5 19t-19.5 47z" />
<glyph unicode="&#xce;" d="M168 103q0 45 31.5 73.5t105.5 28.5h207v802h-207q-74 0 -105.5 28.5t-31.5 74.5t31.5 74.5t105.5 28.5l619 -1q74 0 105.5 -28t31.5 -74t-31.5 -74.5t-105.5 -28.5h-207v-802h207q74 0 105.5 -28.5t31.5 -74.5q0 -45 -31.5 -73.5t-105.5 -28.5h-619q-74 0 -105.5 28.5 t-31.5 74.5zM286 1407q0 36 46 67l280 188l283 -188q45 -31 45 -66q0 -28 -20 -49t-49 -21q-20 0 -53 23l-206 138l-204 -138q-33 -23 -54 -23q-27 0 -47.5 21t-20.5 48z" />
<glyph unicode="&#xcf;" d="M168 103q0 45 31.5 73.5t105.5 28.5h207v802h-207q-74 0 -105.5 28.5t-31.5 74.5t31.5 74.5t105.5 28.5l619 -1q74 0 105.5 -28t31.5 -74t-31.5 -74.5t-105.5 -28.5h-207v-802h207q74 0 105.5 -28.5t31.5 -74.5q0 -45 -31.5 -73.5t-105.5 -28.5h-619q-74 0 -105.5 28.5 t-31.5 74.5zM292 1496q0 45 32 76.5t77 31.5t76.5 -31.5t31.5 -76.5q0 -46 -31.5 -77.5t-76.5 -31.5t-77 32t-32 77zM720 1496q0 45 31.5 76.5t76.5 31.5t77 -31.5t32 -76.5q0 -46 -32 -77.5t-77 -31.5t-76.5 32t-31.5 77z" />
<glyph unicode="&#xd0;" d="M-36 613q0 47 37 80q28 23 118 23h39v291q-65 1 -96 29.5t-31 73.5q0 46 31.5 74.5t105.5 28.5l429 -1q100 0 195.5 -37t153.5 -94q44 -43 91.5 -118t71.5 -149t24 -181v-98q0 -130 -44 -230.5t-115.5 -164t-134.5 -93.5q-100 -47 -259 -47h-412q-74 0 -105.5 28.5 t-31.5 74.5q0 45 31.5 74t95.5 28v305l-40 1q-83 0 -105 14q-49 32 -49 88zM363 205h218q122 0 184 35q81 46 122 117t41 184v97q0 97 -37 170q-58 114 -130.5 156.5t-181.5 42.5h-216v-291h107q105 -1 124 -5q31 -8 52 -36t21 -62t-21 -62t-51 -35q-21 -6 -125 -6h-107 v-305z" />
<glyph unicode="&#xd1;" d="M-16 1110q0 46 31.5 74.5t105.5 28.5l237 -1l524 -822v617h-74q-74 0 -105.5 28.5t-31.5 74.5t31.5 74.5t105.5 28.5l269 -1q74 0 105.5 -28t31.5 -74q0 -45 -31 -74t-95 -29v-1007h-203l-527 825v-620h74q74 0 105.5 -28.5t31.5 -74.5q0 -45 -31.5 -73.5t-105.5 -28.5 h-269q-74 0 -105.5 28.5t-31.5 74.5q0 44 31 73t96 29v802h-32q-74 0 -105.5 28.5t-31.5 74.5zM268 1427q0 37 61 86q82 67 152 67q32 0 60 -11q43 -18 113 -66.5t92 -48.5q26 0 76 45q32 29 44.5 35.5t26.5 6.5q28 0 48 -20t20 -48q0 -35 -72.5 -93.5t-144.5 -58.5 q-35 0 -69.5 14.5t-133.5 83.5q-41 28 -56 28q-22 0 -86 -53q-40 -34 -66 -34t-45.5 19.5t-19.5 47.5z" />
<glyph unicode="&#xd2;" d="M41 606q0 298 204 486q165 151 370 151q228 0 401.5 -181.5t173.5 -455.5q0 -273 -173.5 -454.5t-401.5 -181.5q-205 0 -370 151q-204 187 -204 485zM246 606q0 -186 113 -308.5t256 -122.5q144 0 257 122t113 309t-113 309.5t-257 122.5q-143 0 -256 -123t-113 -309z M415 1618q0 28 19.5 47t47.5 19q23 0 57 -27l225 -183q41 -32 41 -64q0 -28 -19.5 -47t-47.5 -19q-23 0 -57 27l-226 183q-40 32 -40 64z" />
<glyph unicode="&#xd3;" d="M41 606q0 298 204 486q165 151 370 151q228 0 401.5 -181.5t173.5 -455.5q0 -273 -173.5 -454.5t-401.5 -181.5q-205 0 -370 151q-204 187 -204 485zM246 606q0 -186 113 -308.5t256 -122.5q144 0 257 122t113 309t-113 309.5t-257 122.5q-143 0 -256 -123t-113 -309z M437 1410q0 32 40 64l226 183q34 27 57 27q28 0 47.5 -19t19.5 -46q0 -33 -41 -65l-225 -183q-34 -27 -57 -27q-28 0 -47.5 19t-19.5 47z" />
<glyph unicode="&#xd4;" d="M41 606q0 298 204 486q165 151 370 151q228 0 401.5 -181.5t173.5 -455.5q0 -273 -173.5 -454.5t-401.5 -181.5q-205 0 -370 151q-204 187 -204 485zM246 606q0 -186 113 -308.5t256 -122.5q144 0 257 122t113 309t-113 309.5t-257 122.5q-143 0 -256 -123t-113 -309z M287 1407q0 36 46 67l280 188l283 -188q45 -31 45 -66q0 -28 -20 -49t-49 -21q-20 0 -53 23l-206 138l-204 -138q-33 -23 -54 -23q-27 0 -47.5 21t-20.5 48z" />
<glyph unicode="&#xd5;" d="M41 606q0 298 204 486q165 151 370 151q228 0 401.5 -181.5t173.5 -455.5q0 -273 -173.5 -454.5t-401.5 -181.5q-205 0 -370 151q-204 187 -204 485zM246 606q0 -186 113 -308.5t256 -122.5q144 0 257 122t113 309t-113 309.5t-257 122.5q-143 0 -256 -123t-113 -309z M268 1427q0 37 61 86q82 67 152 67q32 0 60 -11q43 -18 113 -66.5t92 -48.5q26 0 76 45q32 29 44.5 35.5t26.5 6.5q28 0 48 -20t20 -48q0 -35 -72.5 -93.5t-144.5 -58.5q-35 0 -69.5 14.5t-133.5 83.5q-41 28 -56 28q-22 0 -86 -53q-40 -34 -66 -34t-45.5 19.5t-19.5 47.5z " />
<glyph unicode="&#xd6;" d="M41 606q0 298 204 486q165 151 370 151q228 0 401.5 -181.5t173.5 -455.5q0 -273 -173.5 -454.5t-401.5 -181.5q-205 0 -370 151q-204 187 -204 485zM246 606q0 -186 113 -308.5t256 -122.5q144 0 257 122t113 309t-113 309.5t-257 122.5q-143 0 -256 -123t-113 -309z M292 1496q0 45 32 76.5t77 31.5t76.5 -31.5t31.5 -76.5q0 -46 -31.5 -77.5t-76.5 -31.5t-77 32t-32 77zM720 1496q0 45 31.5 76.5t76.5 31.5t77 -31.5t32 -76.5q0 -46 -32 -77.5t-77 -31.5t-76.5 32t-31.5 77z" />
<glyph unicode="&#xd7;" d="M204 275q0 22 10 41.5t44 53.5l213 212l-208 208q-34 34 -44 53t-10 43q0 43 30 73t75 30q22 0 41 -10t53 -44l208 -208l211 211q34 35 53 45t43 10q43 0 73 -30.5t30 -74.5q0 -22 -10 -41.5t-44 -53.5l-211 -211l207 -207q34 -34 44 -53t10 -43q0 -43 -30 -73t-75 -30 q-22 0 -41 10t-53 44l-207 207l-213 -212q-34 -35 -53 -45t-43 -10q-43 0 -73 30.5t-30 74.5z" />
<glyph unicode="&#xd8;" d="M22 -43q0 34 44 90l113 145q-138 178 -138 414q0 299 206 487q164 150 368 150q166 0 307 -100l83 106q32 41 52.5 53.5t49.5 12.5q42 0 73 -31t31 -75q0 -33 -43 -88l-97 -125q55 -72 87 -175.5t32 -216.5q0 -291 -198 -478q-166 -156 -376 -156q-148 0 -282 83 l-105 -134q-31 -41 -51.5 -53t-49.5 -12q-44 0 -75 29.5t-31 73.5zM247 607q0 -138 65 -245l484 619q-87 57 -180 57q-144 0 -256.5 -122.5t-112.5 -308.5zM461 216q78 -41 155 -41q143 0 256 122.5t113 306.5q0 119 -49 219z" />
<glyph unicode="&#xd9;" d="M22 1110q0 46 31 74t106 28l269 1q74 0 105.5 -28.5t31.5 -74.5t-31.5 -74.5t-105.5 -28.5h-74v-599q0 -92 76.5 -162.5t184.5 -70.5q72 0 135 34t103 99q25 41 25 100v599h-74q-74 0 -105.5 28.5t-31.5 74.5t31.5 74.5t105.5 28.5l269 -1q74 0 105.5 -28t31.5 -74 q0 -45 -31 -74t-96 -29v-581q0 -190 -136.5 -323t-328.5 -133q-95 0 -178.5 33.5t-150 98.5t-103.5 135.5t-37 188.5v581q-65 0 -96 29t-31 74zM391 1618q0 28 19.5 47t47.5 19q23 0 57 -27l225 -183q41 -32 41 -64q0 -28 -19.5 -47t-47.5 -19q-23 0 -57 27l-226 183 q-40 32 -40 64z" />
<glyph unicode="&#xda;" d="M22 1110q0 46 31 74t106 28l269 1q74 0 105.5 -28.5t31.5 -74.5t-31.5 -74.5t-105.5 -28.5h-74v-599q0 -92 76.5 -162.5t184.5 -70.5q72 0 135 34t103 99q25 41 25 100v599h-74q-74 0 -105.5 28.5t-31.5 74.5t31.5 74.5t105.5 28.5l269 -1q74 0 105.5 -28t31.5 -74 q0 -45 -31 -74t-96 -29v-581q0 -190 -136.5 -323t-328.5 -133q-95 0 -178.5 33.5t-150 98.5t-103.5 135.5t-37 188.5v581q-65 0 -96 29t-31 74zM443 1410q0 32 40 64l226 183q34 27 57 27q28 0 47.5 -19t19.5 -46q0 -33 -41 -65l-225 -183q-34 -27 -57 -27q-28 0 -47.5 19 t-19.5 47z" />
<glyph unicode="&#xdb;" d="M22 1110q0 46 31 74t106 28l269 1q74 0 105.5 -28.5t31.5 -74.5t-31.5 -74.5t-105.5 -28.5h-74v-599q0 -92 76.5 -162.5t184.5 -70.5q72 0 135 34t103 99q25 41 25 100v599h-74q-74 0 -105.5 28.5t-31.5 74.5t31.5 74.5t105.5 28.5l269 -1q74 0 105.5 -28t31.5 -74 q0 -45 -31 -74t-96 -29v-581q0 -190 -136.5 -323t-328.5 -133q-95 0 -178.5 33.5t-150 98.5t-103.5 135.5t-37 188.5v581q-65 0 -96 29t-31 74zM286 1407q0 36 46 67l280 188l283 -188q45 -31 45 -66q0 -28 -20 -49t-49 -21q-20 0 -53 23l-206 138l-204 -138 q-33 -23 -54 -23q-27 0 -47.5 21t-20.5 48z" />
<glyph unicode="&#xdc;" d="M22 1110q0 46 31 74t106 28l269 1q74 0 105.5 -28.5t31.5 -74.5t-31.5 -74.5t-105.5 -28.5h-74v-599q0 -92 76.5 -162.5t184.5 -70.5q72 0 135 34t103 99q25 41 25 100v599h-74q-74 0 -105.5 28.5t-31.5 74.5t31.5 74.5t105.5 28.5l269 -1q74 0 105.5 -28t31.5 -74 q0 -45 -31 -74t-96 -29v-581q0 -190 -136.5 -323t-328.5 -133q-95 0 -178.5 33.5t-150 98.5t-103.5 135.5t-37 188.5v581q-65 0 -96 29t-31 74zM292 1496q0 45 32 76.5t77 31.5t76.5 -31.5t31.5 -76.5q0 -46 -31.5 -77.5t-76.5 -31.5t-77 32t-32 77zM720 1496 q0 45 31.5 76.5t76.5 31.5t77 -31.5t32 -76.5q0 -46 -32 -77.5t-77 -31.5t-76.5 32t-31.5 77z" />
<glyph unicode="&#xdd;" d="M43 1110q0 46 31.5 74.5t105.5 28.5l186 -1q74 0 105.5 -28t31.5 -74q0 -69 -81 -103l194 -286l190 286q-45 17 -64 43t-19 60q0 46 31.5 74t105.5 29l193 -1q74 0 105.5 -28t31.5 -74t-32 -74.5t-104 -28.5l-336 -498v-304h138q74 0 105.5 -28.5t31.5 -74.5 q0 -45 -31.5 -73.5t-105.5 -28.5h-481q-73 0 -104.5 28.5t-31.5 74.5q0 45 31.5 73.5t104.5 28.5h138v304l-339 498q-68 0 -99.5 29t-31.5 74zM419 1410q0 32 40 64l226 183q34 27 57 27q28 0 47.5 -19t19.5 -46q0 -33 -41 -65l-225 -183q-34 -27 -57 -27q-28 0 -47.5 19 t-19.5 47z" />
<glyph unicode="&#xde;" d="M122 103q0 45 32 73.5t105 28.5h32v802h-32q-74 0 -105.5 28.5t-31.5 74.5q0 33 20 60.5t48 35.5q21 6 101 7l412 -1q74 0 105.5 -28t31.5 -74t-31.5 -74.5t-105.5 -28.5h-207v-57h235q168 0 251.5 -25.5t141.5 -98.5t58 -199q0 -122 -48 -202t-153.5 -121t-290.5 -41 h-194v-58h207q74 0 105.5 -28.5t31.5 -74.5q0 -45 -31.5 -73.5t-105.5 -28.5h-444q-74 0 -105.5 28.5t-31.5 74.5zM496 431h190q174 0 232.5 47.5t58.5 134.5q0 77 -55 122.5t-190 45.5h-236v-350z" />
<glyph unicode="&#xdf;" d="M25 103q0 45 32 73.5t105 28.5h35v790q0 123 97.5 212.5t255.5 89.5t262 -101t104 -246q0 -60 -19 -109q-13 -34 -54 -83q123 -72 184 -180.5t61 -235.5q0 -176 -93 -275.5t-248 -99.5q-128 0 -199 66t-71 168q0 59 29.5 90t74.5 31q36 0 63 -20q19 -14 31 -57t30 -58 t49 -15q59 0 94 40t35 125q0 137 -111 224q-71 56 -204 71q-61 7 -87 34t-26 69q0 41 26.5 68.5t89.5 34.5t93 30q47 35 47 89q0 55 -42.5 95t-115.5 40q-77 0 -121 -37q-30 -24 -30 -74v-776q45 -8 62.5 -34t17.5 -66q0 -48 -26.5 -76.5t-100.5 -28.5h-193 q-74 0 -105.5 28.5t-31.5 74.5z" />
<glyph unicode="&#xe0;" d="M89 247q0 129 131.5 239.5t363.5 110.5q93 0 215 -20v49q0 46 -39.5 75t-150.5 29q-91 0 -236 -36q-54 -13 -84 -13q-41 0 -69.5 29.5t-28.5 75.5q0 26 10 45t28 30.5t75 27.5q76 21 155 33.5t143 12.5q191 0 296.5 -82.5t105.5 -225.5v-422h35q74 0 105.5 -28.5 t31.5 -74.5q0 -45 -31.5 -73.5t-105.5 -28.5h-240v48q-77 -41 -170 -61.5t-169 -20.5q-165 0 -268 87.5t-103 193.5zM301 251q0 -29 27 -47q50 -33 137 -33q74 0 167.5 29t166.5 79v88q-123 24 -227 24q-125 0 -215 -61q-56 -39 -56 -79zM419 1301q0 28 19.5 47t47.5 19 q23 0 57 -27l225 -183q41 -32 41 -64q0 -28 -19.5 -47t-47.5 -19q-23 0 -57 27l-226 183q-40 32 -40 64z" />
<glyph unicode="&#xe1;" d="M89 247q0 129 131.5 239.5t363.5 110.5q93 0 215 -20v49q0 46 -39.5 75t-150.5 29q-91 0 -236 -36q-54 -13 -84 -13q-41 0 -69.5 29.5t-28.5 75.5q0 26 10 45t28 30.5t75 27.5q76 21 155 33.5t143 12.5q191 0 296.5 -82.5t105.5 -225.5v-422h35q74 0 105.5 -28.5 t31.5 -74.5q0 -45 -31.5 -73.5t-105.5 -28.5h-240v48q-77 -41 -170 -61.5t-169 -20.5q-165 0 -268 87.5t-103 193.5zM301 251q0 -29 27 -47q50 -33 137 -33q74 0 167.5 29t166.5 79v88q-123 24 -227 24q-125 0 -215 -61q-56 -39 -56 -79zM420 1091q0 32 40 64l226 183 q34 27 57 27q28 0 47.5 -19t19.5 -46q0 -33 -41 -65l-225 -183q-34 -27 -57 -27q-28 0 -47.5 19t-19.5 47z" />
<glyph unicode="&#xe2;" d="M89 247q0 129 131.5 239.5t363.5 110.5q93 0 215 -20v49q0 46 -39.5 75t-150.5 29q-91 0 -236 -36q-54 -13 -84 -13q-41 0 -69.5 29.5t-28.5 75.5q0 26 10 45t28 30.5t75 27.5q76 21 155 33.5t143 12.5q191 0 296.5 -82.5t105.5 -225.5v-422h35q74 0 105.5 -28.5 t31.5 -74.5q0 -45 -31.5 -73.5t-105.5 -28.5h-240v48q-77 -41 -170 -61.5t-169 -20.5q-165 0 -268 87.5t-103 193.5zM295 1088q0 36 46 67l280 188l283 -188q45 -31 45 -66q0 -28 -20 -49t-49 -21q-20 0 -53 23l-206 138l-204 -138q-33 -23 -54 -23q-27 0 -47.5 21t-20.5 48 zM301 251q0 -29 27 -47q50 -33 137 -33q74 0 167.5 29t166.5 79v88q-123 24 -227 24q-125 0 -215 -61q-56 -39 -56 -79z" />
<glyph unicode="&#xe3;" d="M89 247q0 129 131.5 239.5t363.5 110.5q93 0 215 -20v49q0 46 -39.5 75t-150.5 29q-91 0 -236 -36q-54 -13 -84 -13q-41 0 -69.5 29.5t-28.5 75.5q0 26 10 45t28 30.5t75 27.5q76 21 155 33.5t143 12.5q191 0 296.5 -82.5t105.5 -225.5v-422h35q74 0 105.5 -28.5 t31.5 -74.5q0 -45 -31.5 -73.5t-105.5 -28.5h-240v48q-77 -41 -170 -61.5t-169 -20.5q-165 0 -268 87.5t-103 193.5zM268 1108q0 37 61 86q82 67 152 67q32 0 60 -11q43 -18 113 -66.5t92 -48.5q26 0 76 45q32 29 44.5 35.5t26.5 6.5q28 0 48 -20t20 -48q0 -35 -72.5 -93.5 t-144.5 -58.5q-35 0 -69.5 14.5t-133.5 83.5q-41 28 -56 28q-22 0 -86 -53q-40 -34 -66 -34t-45.5 19.5t-19.5 47.5zM301 251q0 -29 27 -47q50 -33 137 -33q74 0 167.5 29t166.5 79v88q-123 24 -227 24q-125 0 -215 -61q-56 -39 -56 -79z" />
<glyph unicode="&#xe4;" d="M89 247q0 129 131.5 239.5t363.5 110.5q93 0 215 -20v49q0 46 -39.5 75t-150.5 29q-91 0 -236 -36q-54 -13 -84 -13q-41 0 -69.5 29.5t-28.5 75.5q0 26 10 45t28 30.5t75 27.5q76 21 155 33.5t143 12.5q191 0 296.5 -82.5t105.5 -225.5v-422h35q74 0 105.5 -28.5 t31.5 -74.5q0 -45 -31.5 -73.5t-105.5 -28.5h-240v48q-77 -41 -170 -61.5t-169 -20.5q-165 0 -268 87.5t-103 193.5zM292 1177q0 45 32 76.5t77 31.5t76.5 -31.5t31.5 -76.5q0 -46 -31.5 -77.5t-76.5 -31.5t-77 32t-32 77zM301 251q0 -29 27 -47q50 -33 137 -33 q74 0 167.5 29t166.5 79v88q-123 24 -227 24q-125 0 -215 -61q-56 -39 -56 -79zM720 1177q0 45 31.5 76.5t76.5 31.5t77 -31.5t32 -76.5q0 -46 -32 -77.5t-77 -31.5t-76.5 32t-31.5 77z" />
<glyph unicode="&#xe5;" d="M89 247q0 129 131.5 239.5t363.5 110.5q93 0 215 -20v49q0 46 -39.5 75t-150.5 29q-91 0 -236 -36q-54 -13 -84 -13q-41 0 -69.5 29.5t-28.5 75.5q0 26 10 45t28 30.5t75 27.5q76 21 155 33.5t143 12.5q191 0 296.5 -82.5t105.5 -225.5v-422h35q74 0 105.5 -28.5 t31.5 -74.5q0 -45 -31.5 -73.5t-105.5 -28.5h-240v48q-77 -41 -170 -61.5t-169 -20.5q-165 0 -268 87.5t-103 193.5zM301 251q0 -29 27 -47q50 -33 137 -33q74 0 167.5 29t166.5 79v88q-123 24 -227 24q-125 0 -215 -61q-56 -39 -56 -79zM391 1208q0 77 57 132.5t139 55.5 t139 -55.5t57 -132.5q0 -82 -58 -140t-138 -58q-81 0 -138.5 58t-57.5 140zM483 1208q0 -43 30.5 -73.5t73.5 -30.5t73.5 30.5t30.5 73.5q0 39 -30 67.5t-74 28.5t-74 -28.5t-30 -67.5z" />
<glyph unicode="&#xe6;" d="M-43 321q0 68 41 117q60 72 178 114t210 42q51 0 127 -12v44q0 46 -29 74.5t-72 28.5q-40 0 -155 -33q-60 -18 -81 -18q-40 0 -69 30t-29 74q0 46 29.5 73.5t140.5 53t164 25.5q69 0 129 -29.5t112 -88.5q108 118 233 118q66 0 121 -30q85 -46 139.5 -123t86.5 -178 q20 -65 20 -149v-104h-524q28 -101 69 -139.5t86 -38.5q34 0 111 27q126 44 163 44q41 0 68.5 -29t27.5 -78q0 -39 -28 -66.5t-157 -65t-188 -37.5q-89 0 -188 67q-29 -36 -76 -36q-46 0 -77 36q-53 -33 -106 -50t-107 -17q-93 0 -182.5 48t-138.5 132t-49 174zM165 292 q0 -39 46.5 -79.5t108.5 -40.5q40 0 88.5 24t104.5 72v104q-64 17 -120 17q-88 0 -168 -34q-60 -25 -60 -63zM734 555h295q-24 88 -69 131t-79 43q-33 0 -77.5 -43t-69.5 -131z" />
<glyph unicode="&#xe7;" d="M114 429q0 219 146 362.5t381 143.5q85 0 158 -16t135 -48q37 35 76 35q44 0 72.5 -31.5t28.5 -104.5v-132q0 -74 -28.5 -105t-74.5 -31q-42 0 -71 24q-21 18 -33 73.5t-58 82.5q-81 48 -207 48q-145 0 -232.5 -85t-87.5 -215q0 -120 84 -189.5t279 -69.5q128 0 209 26 q48 16 91 54.5t78 38.5q42 0 72.5 -31t30.5 -73q0 -68 -93 -129q-138 -91 -404 -91q-239 0 -372 99q-180 133 -180 364zM415 -253q0 27 19.5 46.5t46.5 19.5q17 0 53 -20q48 -27 97 -27q24 0 36 8q10 6 10 12t-8 10q-17 9 -52 9h-58v190q0 38 19 58t47 20q29 0 48 -19.5 t19 -47.5v-75q56 -16 86.5 -54.5t30.5 -88.5q0 -63 -49.5 -109t-126.5 -46q-104 0 -183 52q-35 23 -35 62z" />
<glyph unicode="&#xe8;" d="M66 448q0 216 159.5 351.5t367.5 135.5q125 0 229.5 -44t155.5 -95q72 -74 119 -183q32 -76 32 -176v-87h-841q32 -80 113.5 -129t220.5 -49q114 0 303 49q78 20 108 20q41 0 69 -29t28 -73q0 -40 -30 -68q-40 -37 -195 -70.5t-298 -33.5q-246 0 -393.5 139t-147.5 342z M294 555h608q-47 88 -123 131.5t-181 43.5q-104 0 -180 -43.5t-124 -131.5zM359 1301q0 28 19.5 47t47.5 19q23 0 57 -27l225 -183q41 -32 41 -64q0 -28 -19.5 -47t-47.5 -19q-23 0 -57 27l-226 183q-40 32 -40 64z" />
<glyph unicode="&#xe9;" d="M66 448q0 216 159.5 351.5t367.5 135.5q125 0 229.5 -44t155.5 -95q72 -74 119 -183q32 -76 32 -176v-87h-841q32 -80 113.5 -129t220.5 -49q114 0 303 49q78 20 108 20q41 0 69 -29t28 -73q0 -40 -30 -68q-40 -37 -195 -70.5t-298 -33.5q-246 0 -393.5 139t-147.5 342z M294 555h608q-47 88 -123 131.5t-181 43.5q-104 0 -180 -43.5t-124 -131.5zM408 1091q0 32 40 64l226 183q34 27 57 27q28 0 47.5 -19t19.5 -46q0 -33 -41 -65l-225 -183q-34 -27 -57 -27q-28 0 -47.5 19t-19.5 47z" />
<glyph unicode="&#xea;" d="M66 448q0 216 159.5 351.5t367.5 135.5q125 0 229.5 -44t155.5 -95q72 -74 119 -183q32 -76 32 -176v-87h-841q32 -80 113.5 -129t220.5 -49q114 0 303 49q78 20 108 20q41 0 69 -29t28 -73q0 -40 -30 -68q-40 -37 -195 -70.5t-298 -33.5q-246 0 -393.5 139t-147.5 342z M287 1088q0 36 46 67l280 188l283 -188q45 -31 45 -66q0 -28 -20 -49t-49 -21q-20 0 -53 23l-206 138l-204 -138q-33 -23 -54 -23q-27 0 -47.5 21t-20.5 48zM294 555h608q-47 88 -123 131.5t-181 43.5q-104 0 -180 -43.5t-124 -131.5z" />
<glyph unicode="&#xeb;" d="M66 448q0 216 159.5 351.5t367.5 135.5q125 0 229.5 -44t155.5 -95q72 -74 119 -183q32 -76 32 -176v-87h-841q32 -80 113.5 -129t220.5 -49q114 0 303 49q78 20 108 20q41 0 69 -29t28 -73q0 -40 -30 -68q-40 -37 -195 -70.5t-298 -33.5q-246 0 -393.5 139t-147.5 342z M292 1177q0 45 32 76.5t77 31.5t76.5 -31.5t31.5 -76.5q0 -46 -31.5 -77.5t-76.5 -31.5t-77 32t-32 77zM294 555h608q-47 88 -123 131.5t-181 43.5q-104 0 -180 -43.5t-124 -131.5zM720 1177q0 45 31.5 76.5t76.5 31.5t77 -31.5t32 -76.5q0 -46 -32 -77.5t-77 -31.5 t-76.5 32t-31.5 77z" />
<glyph unicode="&#xec;" d="M128 103q0 45 31.5 73.5t105.5 28.5h246v498h-165q-73 0 -105 28.5t-32 74.5q0 45 31.5 73.5t105.5 28.5h370v-703h246q74 0 105.5 -28.5t31.5 -74.5q0 -45 -31.5 -73.5t-105.5 -28.5h-697q-74 0 -105.5 28.5t-31.5 74.5zM335 1301q0 28 19.5 47t47.5 19q23 0 57 -27 l225 -183q41 -32 41 -64q0 -28 -19.5 -47t-47.5 -19q-23 0 -57 27l-226 183q-40 32 -40 64z" />
<glyph unicode="&#xed;" d="M128 103q0 45 31.5 73.5t105.5 28.5h246v498h-165q-73 0 -105 28.5t-32 74.5q0 45 31.5 73.5t105.5 28.5h370v-703h246q74 0 105.5 -28.5t31.5 -74.5q0 -45 -31.5 -73.5t-105.5 -28.5h-697q-74 0 -105.5 28.5t-31.5 74.5zM327 1091q0 32 40 64l226 183q34 27 57 27 q28 0 47.5 -19t19.5 -46q0 -33 -41 -65l-225 -183q-34 -27 -57 -27q-28 0 -47.5 19t-19.5 47z" />
<glyph unicode="&#xee;" d="M128 103q0 45 31.5 73.5t105.5 28.5h246v498h-165q-73 0 -105 28.5t-32 74.5q0 45 31.5 73.5t105.5 28.5h370v-703h246q74 0 105.5 -28.5t31.5 -74.5q0 -45 -31.5 -73.5t-105.5 -28.5h-697q-74 0 -105.5 28.5t-31.5 74.5zM181 1088q0 36 46 67l280 188l283 -188 q45 -31 45 -66q0 -28 -20 -49t-49 -21q-20 0 -53 23l-206 138l-204 -138q-33 -23 -54 -23q-27 0 -47.5 21t-20.5 48z" />
<glyph unicode="&#xef;" d="M128 103q0 45 31.5 73.5t105.5 28.5h246v498h-165q-73 0 -105 28.5t-32 74.5q0 45 31.5 73.5t105.5 28.5h370v-703h246q74 0 105.5 -28.5t31.5 -74.5q0 -45 -31.5 -73.5t-105.5 -28.5h-697q-74 0 -105.5 28.5t-31.5 74.5zM207 1177q0 45 32 76.5t77 31.5t76.5 -31.5 t31.5 -76.5q0 -46 -31.5 -77.5t-76.5 -31.5t-77 32t-32 77zM635 1177q0 45 31.5 76.5t76.5 31.5t77 -31.5t32 -76.5q0 -46 -32 -77.5t-77 -31.5t-76.5 32t-31.5 77z" />
<glyph unicode="&#xf0;" d="M91 424q0 183 134 310t348 127q88 0 165.5 -21.5t143.5 -65.5q-59 159 -168 247l-220 -77q-49 -14 -75 -14q-27 0 -44.5 18.5t-17.5 48.5q0 35 24 56t164 55q-124 25 -143 35q-36 21 -36 65q0 37 25.5 61.5t72.5 24.5q78 0 169 -27.5t159 -72.5q124 51 175 51 q26 0 46 -19t20 -47q0 -33 -22 -54t-99 -36q194 -205 194 -557q0 -300 -149 -433.5t-359 -133.5q-222 0 -364.5 134.5t-142.5 324.5zM316 408q0 -106 75.5 -174.5t213.5 -68.5q128 0 199 69t71 180q0 109 -80.5 186.5t-202.5 77.5q-118 0 -197 -78t-79 -192z" />
<glyph unicode="&#xf1;" d="M51 103q0 56 48 87q24 15 103 15v498q-65 0 -96 29t-31 74t31.5 73.5t105.5 28.5h195v-69q56 48 123.5 72t146.5 24q182 0 288 -113q84 -90 84 -236v-381q65 0 96 -28.5t31 -74.5q0 -45 -31.5 -73.5t-105.5 -28.5h-185q-74 0 -105.5 28.5t-31.5 74.5q0 45 31 73.5 t96 28.5v387q0 67 -36 98q-47 40 -141 40q-71 0 -124.5 -27.5t-135.5 -116.5v-381q79 0 102 -15q49 -30 49 -88q0 -45 -31.5 -73.5t-105.5 -28.5h-233q-74 0 -105.5 28.5t-31.5 74.5zM228 1108q0 37 61 86q82 67 152 67q32 0 60 -11q43 -18 113 -66.5t92 -48.5q26 0 76 45 q32 29 44.5 35.5t26.5 6.5q28 0 48 -20t20 -48q0 -35 -72.5 -93.5t-144.5 -58.5q-35 0 -69.5 14.5t-133.5 83.5q-41 28 -56 28q-22 0 -86 -53q-40 -34 -66 -34t-45.5 19.5t-19.5 47.5z" />
<glyph unicode="&#xf2;" d="M86 439q0 123 68 241.5t195.5 186.5t266.5 68q140 0 269.5 -69.5t195.5 -187t66 -241.5q0 -118 -65.5 -228.5t-195 -176t-270.5 -65.5q-140 0 -268 64.5t-195 175.5t-67 232zM291 435q0 -96 94 -179.5t231 -83.5q138 0 232 83.5t94 180.5q0 99 -71 182q-97 112 -255 112 q-139 0 -232 -89t-93 -206zM467 1301q0 28 19.5 47t47.5 19q23 0 57 -27l225 -183q41 -32 41 -64q0 -28 -19.5 -47t-47.5 -19q-23 0 -57 27l-226 183q-40 32 -40 64z" />
<glyph unicode="&#xf3;" d="M86 439q0 123 68 241.5t195.5 186.5t266.5 68q140 0 269.5 -69.5t195.5 -187t66 -241.5q0 -118 -65.5 -228.5t-195 -176t-270.5 -65.5q-140 0 -268 64.5t-195 175.5t-67 232zM291 435q0 -96 94 -179.5t231 -83.5q138 0 232 83.5t94 180.5q0 99 -71 182q-97 112 -255 112 q-139 0 -232 -89t-93 -206zM420 1091q0 32 40 64l226 183q34 27 57 27q28 0 47.5 -19t19.5 -46q0 -33 -41 -65l-225 -183q-34 -27 -57 -27q-28 0 -47.5 19t-19.5 47z" />
<glyph unicode="&#xf4;" d="M86 439q0 123 68 241.5t195.5 186.5t266.5 68q140 0 269.5 -69.5t195.5 -187t66 -241.5q0 -118 -65.5 -228.5t-195 -176t-270.5 -65.5q-140 0 -268 64.5t-195 175.5t-67 232zM287 1088q0 36 46 67l280 188l283 -188q45 -31 45 -66q0 -28 -20 -49t-49 -21q-20 0 -53 23 l-206 138l-204 -138q-33 -23 -54 -23q-27 0 -47.5 21t-20.5 48zM291 435q0 -96 94 -179.5t231 -83.5q138 0 232 83.5t94 180.5q0 99 -71 182q-97 112 -255 112q-139 0 -232 -89t-93 -206z" />
<glyph unicode="&#xf5;" d="M86 439q0 123 68 241.5t195.5 186.5t266.5 68q140 0 269.5 -69.5t195.5 -187t66 -241.5q0 -118 -65.5 -228.5t-195 -176t-270.5 -65.5q-140 0 -268 64.5t-195 175.5t-67 232zM270 1108q0 37 61 86q82 67 152 67q32 0 60 -11q43 -18 113 -66.5t92 -48.5q26 0 76 45 q32 29 44.5 35.5t26.5 6.5q28 0 48 -20t20 -48q0 -35 -72.5 -93.5t-144.5 -58.5q-35 0 -69.5 14.5t-133.5 83.5q-41 28 -56 28q-22 0 -86 -53q-40 -34 -66 -34t-45.5 19.5t-19.5 47.5zM291 435q0 -96 94 -179.5t231 -83.5q138 0 232 83.5t94 180.5q0 99 -71 182 q-97 112 -255 112q-139 0 -232 -89t-93 -206z" />
<glyph unicode="&#xf6;" d="M86 439q0 123 68 241.5t195.5 186.5t266.5 68q140 0 269.5 -69.5t195.5 -187t66 -241.5q0 -118 -65.5 -228.5t-195 -176t-270.5 -65.5q-140 0 -268 64.5t-195 175.5t-67 232zM291 435q0 -96 94 -179.5t231 -83.5q138 0 232 83.5t94 180.5q0 99 -71 182q-97 112 -255 112 q-139 0 -232 -89t-93 -206zM292 1177q0 45 32 76.5t77 31.5t76.5 -31.5t31.5 -76.5q0 -46 -31.5 -77.5t-76.5 -31.5t-77 32t-32 77zM720 1177q0 45 31.5 76.5t76.5 31.5t77 -31.5t32 -76.5q0 -46 -32 -77.5t-77 -31.5t-76.5 32t-31.5 77z" />
<glyph unicode="&#xf7;" d="M82 583q0 34 21 62t52 35q20 5 124 5h671q105 0 125 -5q30 -8 51 -35.5t21 -61.5q0 -35 -21 -62.5t-52 -35.5q-20 -5 -124 -5h-671q-105 0 -125 5q-30 8 -51 35.5t-21 62.5zM517 112q0 43 30 73t72 30q43 0 73 -30t30 -73q0 -42 -30 -72t-73 -30q-42 0 -72 30t-30 72z M517 1056q0 42 30 72t73 30q42 0 72 -30t30 -72q0 -43 -30 -73t-72 -30q-43 0 -73 30t-30 73z" />
<glyph unicode="&#xf8;" d="M46 -41q0 22 10 40.5t43 52.5l88 91q-120 130 -120 298q0 122 69 240.5t200.5 187t275.5 68.5q145 0 276 -69l86 90q34 35 53.5 45.5t44.5 10.5q42 0 72.5 -30.5t30.5 -75.5q0 -22 -10.5 -41.5t-42.5 -51.5l-73 -76q50 -59 79 -140.5t29 -158.5q0 -119 -68 -230 t-200 -176t-276 -65q-133 0 -256 55l-110 -115q-34 -35 -53.5 -45.5t-44.5 -10.5q-43 0 -73 30.5t-30 75.5zM272 439q0 -75 60 -145l405 418q-63 20 -126 20q-146 0 -242.5 -90t-96.5 -203zM514 185q49 -11 98 -11q146 0 243 84.5t97 178.5q0 78 -49 151z" />
<glyph unicode="&#xf9;" d="M30 806q0 45 31.5 73.5t105.5 28.5h240v-610q0 -65 31.5 -95.5t96.5 -30.5q62 0 133.5 24.5t176.5 88.5v418h-74q-74 0 -105.5 28.5t-31.5 74.5q0 45 31.5 73.5t105.5 28.5h279v-703q65 0 96 -29t31 -74t-31.5 -73.5t-105.5 -28.5h-195v47q-88 -40 -168 -60t-152 -20 q-101 0 -175 42.5t-117 117.5q-31 54 -31 135v441h-35q-74 0 -105.5 28.5t-31.5 74.5zM347 1301q0 28 19.5 47t47.5 19q23 0 57 -27l225 -183q41 -32 41 -64q0 -28 -19.5 -47t-47.5 -19q-23 0 -57 27l-226 183q-40 32 -40 64z" />
<glyph unicode="&#xfa;" d="M30 806q0 45 31.5 73.5t105.5 28.5h240v-610q0 -65 31.5 -95.5t96.5 -30.5q62 0 133.5 24.5t176.5 88.5v418h-74q-74 0 -105.5 28.5t-31.5 74.5q0 45 31.5 73.5t105.5 28.5h279v-703q65 0 96 -29t31 -74t-31.5 -73.5t-105.5 -28.5h-195v47q-88 -40 -168 -60t-152 -20 q-101 0 -175 42.5t-117 117.5q-31 54 -31 135v441h-35q-74 0 -105.5 28.5t-31.5 74.5zM421 1091q0 32 40 64l226 183q34 27 57 27q28 0 47.5 -19t19.5 -46q0 -33 -41 -65l-225 -183q-34 -27 -57 -27q-28 0 -47.5 19t-19.5 47z" />
<glyph unicode="&#xfb;" d="M30 806q0 45 31.5 73.5t105.5 28.5h240v-610q0 -65 31.5 -95.5t96.5 -30.5q62 0 133.5 24.5t176.5 88.5v418h-74q-74 0 -105.5 28.5t-31.5 74.5q0 45 31.5 73.5t105.5 28.5h279v-703q65 0 96 -29t31 -74t-31.5 -73.5t-105.5 -28.5h-195v47q-88 -40 -168 -60t-152 -20 q-101 0 -175 42.5t-117 117.5q-31 54 -31 135v441h-35q-74 0 -105.5 28.5t-31.5 74.5zM243 1088q0 36 46 67l280 188l283 -188q45 -31 45 -66q0 -28 -20 -49t-49 -21q-20 0 -53 23l-206 138l-204 -138q-33 -23 -54 -23q-27 0 -47.5 21t-20.5 48z" />
<glyph unicode="&#xfc;" d="M30 806q0 45 31.5 73.5t105.5 28.5h240v-610q0 -65 31.5 -95.5t96.5 -30.5q62 0 133.5 24.5t176.5 88.5v418h-74q-74 0 -105.5 28.5t-31.5 74.5q0 45 31.5 73.5t105.5 28.5h279v-703q65 0 96 -29t31 -74t-31.5 -73.5t-105.5 -28.5h-195v47q-88 -40 -168 -60t-152 -20 q-101 0 -175 42.5t-117 117.5q-31 54 -31 135v441h-35q-74 0 -105.5 28.5t-31.5 74.5zM256 1177q0 45 32 76.5t77 31.5t76.5 -31.5t31.5 -76.5q0 -46 -31.5 -77.5t-76.5 -31.5t-77 32t-32 77zM684 1177q0 45 31.5 76.5t76.5 31.5t77 -31.5t32 -76.5q0 -46 -32 -77.5 t-77 -31.5t-76.5 32t-31.5 77z" />
<glyph unicode="&#xfd;" d="M43 -326q0 46 31.5 74.5t105.5 28.5h204l116 230l-355 696q-50 6 -76 34t-26 68q0 46 31.5 74.5t105.5 28.5h187q74 0 105.5 -28.5t31.5 -74.5q0 -45 -31.5 -73.5t-99.5 -28.5l242 -471l240 471q-66 0 -97.5 28.5t-31.5 74.5q0 45 31.5 73.5t105.5 28.5h193 q73 0 104.5 -28.5t31.5 -74.5q0 -41 -27 -69.5t-80 -32.5l-470 -926q77 0 101 -15q48 -31 48 -88q0 -45 -31.5 -73.5t-105.5 -28.5h-447q-74 0 -105.5 28.5t-31.5 73.5zM439 1091q0 32 40 64l226 183q34 27 57 27q28 0 47.5 -19t19.5 -46q0 -33 -41 -65l-225 -183 q-34 -27 -57 -27q-28 0 -47.5 19t-19.5 47z" />
<glyph unicode="&#xfe;" d="M-17 -326q0 46 32 74.5t105 28.5h35v1315h-35q-74 0 -105.5 28.5t-31.5 73.5q0 46 31.5 74.5t105.5 28.5h240v-459q72 49 148.5 73t157.5 24q136 0 258 -62.5t185.5 -173t63.5 -234.5q0 -180 -143 -310.5t-371 -130.5q-81 0 -148 20t-151 69v-336h123q74 0 105.5 -28.5 t31.5 -74.5q0 -45 -31.5 -73.5t-105.5 -28.5h-363q-74 0 -105.5 28.5t-31.5 73.5zM360 484q0 -101 86 -179.5t216 -78.5q89 0 160.5 35t107.5 94.5t36 118.5q0 100 -85.5 178t-214.5 78q-135 0 -220.5 -75t-85.5 -171z" />
<glyph unicode="&#xff;" d="M43 -326q0 46 31.5 74.5t105.5 28.5h204l116 230l-355 696q-50 6 -76 34t-26 68q0 46 31.5 74.5t105.5 28.5h187q74 0 105.5 -28.5t31.5 -74.5q0 -45 -31.5 -73.5t-99.5 -28.5l242 -471l240 471q-66 0 -97.5 28.5t-31.5 74.5q0 45 31.5 73.5t105.5 28.5h193 q73 0 104.5 -28.5t31.5 -74.5q0 -41 -27 -69.5t-80 -32.5l-470 -926q77 0 101 -15q48 -31 48 -88q0 -45 -31.5 -73.5t-105.5 -28.5h-447q-74 0 -105.5 28.5t-31.5 73.5zM256 1177q0 45 32 76.5t77 31.5t76.5 -31.5t31.5 -76.5q0 -46 -31.5 -77.5t-76.5 -31.5t-77 32t-32 77z M684 1177q0 45 31.5 76.5t76.5 31.5t77 -31.5t32 -76.5q0 -46 -32 -77.5t-77 -31.5t-76.5 32t-31.5 77z" />
<glyph unicode="&#x152;" d="M-42 603q0 180 77 326q59 110 195.5 197t308.5 87l693 -1v-342q0 -74 -28.5 -105.5t-74.5 -31.5q-45 0 -73.5 31.5t-28.5 105.5v137h-267v-297h42q3 57 31.5 85.5t71.5 28.5q45 0 73.5 -31.5t28.5 -105.5v-161q0 -74 -28.5 -105.5t-73.5 -31.5q-44 0 -73.5 30.5 t-29.5 85.5h-42v-300h309v48q0 73 28.5 105t74.5 32q45 0 73.5 -31.5t28.5 -105.5v-253h-734q-158 0 -295 75.5t-212 216t-75 311.5zM163 606q0 -109 53.5 -211t135.5 -145.5t203 -45.5v803q-124 -1 -205 -45t-134 -145.5t-53 -210.5z" />
<glyph unicode="&#x153;" d="M-42 439q0 127 58.5 250.5t146.5 183.5t174 60q78 0 146.5 -41.5t127.5 -124.5q55 83 125.5 124.5t143.5 41.5q72 0 148.5 -45t127 -120t78.5 -164q20 -67 20 -154v-102h-525q20 -89 64.5 -132.5t85.5 -43.5q40 0 170 44q74 26 105 26q42 0 72 -31t30 -76q0 -39 -21 -62 t-123 -57q-148 -49 -236 -49q-64 0 -135 34.5t-130 119.5q-57 -77 -124.5 -115.5t-146.5 -38.5q-138 0 -260 138.5t-122 333.5zM163 450q0 -89 54 -183.5t125 -94.5q64 0 118.5 93.5t54.5 184.5q0 92 -54.5 185t-123.5 93q-65 0 -119.5 -93.5t-54.5 -184.5zM735 554h298 q-36 97 -86 144q-32 30 -65 30q-29 0 -61 -30q-49 -47 -86 -144z" />
<glyph unicode="&#x178;" d="M43 1110q0 46 31.5 74.5t105.5 28.5l186 -1q74 0 105.5 -28t31.5 -74q0 -69 -81 -103l194 -286l190 286q-45 17 -64 43t-19 60q0 46 31.5 74t105.5 29l193 -1q74 0 105.5 -28t31.5 -74t-32 -74.5t-104 -28.5l-336 -498v-304h138q74 0 105.5 -28.5t31.5 -74.5 q0 -45 -31.5 -73.5t-105.5 -28.5h-481q-73 0 -104.5 28.5t-31.5 74.5q0 45 31.5 73.5t104.5 28.5h138v304l-339 498q-68 0 -99.5 29t-31.5 74zM291 1496q0 45 32 76.5t77 31.5t76.5 -31.5t31.5 -76.5q0 -46 -31.5 -77.5t-76.5 -31.5t-77 32t-32 77zM719 1496q0 45 31.5 76.5 t76.5 31.5t77 -31.5t32 -76.5q0 -46 -32 -77.5t-77 -31.5t-76.5 32t-31.5 77z" />
<glyph unicode="&#x2c6;" d="M287 1088q0 36 46 67l280 188l283 -188q45 -31 45 -66q0 -28 -20 -49t-49 -21q-20 0 -53 23l-206 138l-204 -138q-33 -23 -54 -23q-27 0 -47.5 21t-20.5 48z" />
<glyph unicode="&#x2dc;" d="M268 1108q0 37 61 86q82 67 152 67q32 0 60 -11q43 -18 113 -66.5t92 -48.5q26 0 76 45q32 29 44.5 35.5t26.5 6.5q28 0 48 -20t20 -48q0 -35 -72.5 -93.5t-144.5 -58.5q-35 0 -69.5 14.5t-133.5 83.5q-41 28 -56 28q-22 0 -86 -53q-40 -34 -66 -34t-45.5 19.5 t-19.5 47.5z" />
<glyph unicode="&#x2000;" horiz-adv-x="852" />
<glyph unicode="&#x2001;" horiz-adv-x="1705" />
<glyph unicode="&#x2002;" horiz-adv-x="852" />
<glyph unicode="&#x2003;" horiz-adv-x="1705" />
<glyph unicode="&#x2004;" horiz-adv-x="568" />
<glyph unicode="&#x2005;" horiz-adv-x="426" />
<glyph unicode="&#x2006;" horiz-adv-x="284" />
<glyph unicode="&#x2007;" horiz-adv-x="284" />
<glyph unicode="&#x2008;" horiz-adv-x="213" />
<glyph unicode="&#x2009;" horiz-adv-x="341" />
<glyph unicode="&#x200a;" horiz-adv-x="94" />
<glyph unicode="&#x2010;" d="M188 488v187h856v-187h-856z" />
<glyph unicode="&#x2011;" d="M188 488v187h856v-187h-856z" />
<glyph unicode="&#x2012;" d="M188 488v187h856v-187h-856z" />
<glyph unicode="&#x2013;" d="M82 581q0 45 31.5 73.5t105.5 28.5h789q74 0 105.5 -28.5t31.5 -74.5q0 -45 -31.5 -73.5t-105.5 -28.5h-789q-74 0 -105.5 28.5t-31.5 74.5z" />
<glyph unicode="&#x2014;" d="M-61 580q0 45 31.5 73.5t105.5 28.5h1078q73 0 104.5 -28.5t31.5 -74.5q0 -45 -31 -73.5t-105 -28.5h-1078q-74 0 -105.5 28.5t-31.5 74.5z" />
<glyph unicode="&#x2018;" d="M510 1253h274l141 -509q8 -26 8 -41q0 -21 -18.5 -38t-44.5 -17q-40 0 -66 49z" />
<glyph unicode="&#x2019;" d="M296 703q0 15 7 41l142 509h274l-295 -556q-26 -49 -65 -49q-26 0 -44.5 17t-18.5 38z" />
<glyph unicode="&#x201a;" d="M296 -273q0 14 7 40l142 509h274l-303 -552q-24 -44 -57 -44q-28 0 -45.5 15t-17.5 32z" />
<glyph unicode="&#x201c;" d="M162 1262h244l176 -439q9 -23 9 -39q0 -21 -20 -39t-46 -18q-29 0 -54 41zM592 1262h244l176 -439q9 -23 9 -39q0 -21 -19.5 -39t-45.5 -18q-30 0 -55 41z" />
<glyph unicode="&#x201d;" d="M208 783q0 17 9 40l177 439h243l-308 -494q-26 -41 -55 -41q-26 0 -46 18t-20 38zM638 783q0 17 9 40l177 439h243l-308 -494q-26 -41 -55 -41q-26 0 -46 18t-20 38z" />
<glyph unicode="&#x201e;" d="M208 -210q0 17 9 40l177 438h243l-308 -494q-26 -41 -55 -41q-26 0 -46 18.5t-20 38.5zM638 -210q0 17 9 40l177 438h243l-308 -494q-26 -41 -55 -41q-26 0 -46 18.5t-20 38.5z" />
<glyph unicode="&#x2022;" d="M309 634q0 129 90 220t218 91q127 0 217 -90.5t90 -220.5q0 -129 -90.5 -220t-216.5 -91q-128 0 -218 91t-90 220z" />
<glyph unicode="&#x2026;" d="M102 74q0 43 30 73.5t73 30.5q42 0 72 -30.5t30 -73.5q0 -44 -30 -74t-72 -30q-43 0 -73 30.5t-30 73.5zM512 74q0 43 30 73.5t73 30.5q42 0 72 -30.5t30 -73.5q0 -44 -30 -74t-72 -30q-43 0 -73 30.5t-30 73.5zM922 74q0 43 30 73.5t73 30.5q42 0 72 -30.5t30 -73.5 q0 -44 -30 -74t-72 -30t-72.5 30.5t-30.5 73.5z" />
<glyph unicode="&#x202f;" horiz-adv-x="341" />
<glyph unicode="&#x2039;" d="M272 429l477 403q33 28 54 28q26 0 43.5 -18t17.5 -44q0 -23 -30 -55l-293 -314l286 -273q30 -28 30 -56q0 -24 -18 -42t-44 -18q-23 0 -43 19q-6 5 -10 9z" />
<glyph unicode="&#x203a;" d="M378 799q0 25 18 43t44 18q21 0 53 -28l477 -403l-469 -361l-10 -9q-22 -19 -45 -19q-25 0 -43 18t-18 44t30 54l286 273l-293 314q-30 32 -30 56z" />
<glyph unicode="&#x205f;" horiz-adv-x="426" />
<glyph unicode="&#x20ac;" d="M0 469q0 71 64 71v87q-64 0 -64 53q0 71 71 71q16 107 68 204q72 134 202.5 211t283.5 77q179 0 311 -83q38 52 90 52q102 0 102 -136v-174q0 -137 -102 -137q-83 0 -103 109q-8 43 -28 65q-90 99 -262 99q-194 0 -305 -170q-35 -53 -49 -117h513q68 0 68 -54 q0 -29 -22.5 -49.5t-63.5 -20.5h-505v-87h477q68 0 68 -54q0 -29 -22.5 -49.5t-63.5 -20.5h-444q25 -79 93 -142q108 -99 298 -99q114 0 193 31q45 18 98 71q50 51 91 51q42 0 72.5 -31t30.5 -73t-42 -90q-143 -164 -442 -164q-359 0 -529 265q-54 85 -73 181q-74 0 -74 53z " />
<glyph unicode="&#x2122;" d="M-85 1093v240h590v-240q0 -45 -16 -63.5t-41 -18.5t-41 18.5t-16 63.5v117h-125v-481h77q40 0 58 -17t18 -45t-20 -47q-15 -14 -56 -14h-267q-43 0 -59.5 14t-16.5 44q0 32 17 48.5t59 16.5h76v481h-123v-117q0 -45 -16 -63.5t-41 -18.5t-41 18.5t-16 63.5zM502 667 q0 28 17.5 45t53.5 17v481q-30 3 -45.5 19.5t-15.5 42.5q0 28 20 47q16 14 56 14h125l155 -371l153 371h126q40 0 56 -14q20 -19 20 -47q0 -26 -15.5 -42.5t-45.5 -19.5v-481q36 0 53.5 -17t17.5 -45t-20 -47q-16 -14 -56 -14h-150q-41 0 -58.5 16.5t-17.5 44.5t20 47 q16 15 56 15h41v366l-130 -317h-99l-132 317v-366h41q41 0 56 -15q20 -19 20 -47t-20 -47q-15 -14 -56 -14h-150q-40 0 -58 16.5t-18 44.5z" />
<glyph unicode="&#x25fc;" horiz-adv-x="910" d="M0 0v910h910v-910h-910z" />
<glyph unicode="&#xfb01;" d="M-38 103q0 45 31.5 73.5t105.5 28.5h90v498h-82q-73 0 -105 28.5t-32 74.5q0 45 31.5 73.5t105.5 28.5h82v83q0 130 83 218t198 88q99 0 175 -33.5t76 -98.5q0 -45 -29.5 -75.5t-71.5 -30.5q-21 0 -66 17t-77 17t-57.5 -28t-25.5 -74v-83h70q73 0 104.5 -28.5t31.5 -74.5 q0 -45 -31 -73.5t-105 -28.5h-70v-498h70q73 0 104.5 -28.5t31.5 -74.5q0 -45 -31 -73.5t-105 -28.5h-365q-74 0 -105.5 28.5t-31.5 74.5zM641 103q0 45 31.5 73.5t105.5 28.5h82v498h-43q-73 0 -105 28.5t-32 74.5q0 45 31.5 73.5t105.5 28.5h248v-703h77q73 0 104.5 -28.5 t31.5 -74.5q0 -45 -31 -73.5t-105 -28.5h-364q-74 0 -105.5 28.5t-31.5 74.5zM787 1081v216h245v-216h-245z" />
<glyph unicode="&#xfb02;" d="M-40 103q0 45 31.5 73.5t105.5 28.5h91v498h-79q-74 0 -105.5 28.5t-31.5 74.5q0 45 31.5 73.5t105.5 28.5h79v81q0 132 82.5 220t194.5 88q133 0 226 -60q17 32 40.5 46t62.5 14h268v-1092h79q74 0 105.5 -28.5t31.5 -74.5q0 -45 -31.5 -73.5t-105.5 -28.5h-365 q-74 0 -105.5 28.5t-31.5 74.5q0 45 31.5 73.5t105.5 28.5h81v887h-73q-38 0 -74 26q-32 -57 -86 -57q-20 0 -58 12q-59 19 -90 19q-37 0 -56 -23q-27 -31 -27 -79v-82h70q74 0 105.5 -28.5t31.5 -74.5q0 -45 -31.5 -73.5t-105.5 -28.5h-70v-498h70q74 0 105.5 -28.5 t31.5 -74.5q0 -45 -31.5 -73.5t-105.5 -28.5h-366q-74 0 -105.5 28.5t-31.5 74.5z" />
</font>
</defs>
</svg>
